Сегодня идет свободное скачивание без начисления Download

Главный конструктор (1980) DVBRip [H.264]

Ответить на тему
Статистика раздачи
Размер:  1,99 GB   |    Зарегистрирован:  2 месяца 14 дней   |    Скачан:  0 раз
Сидов:  10  [  0 KB/s  ]   Подробная статистика пиров
 
   
 
 
Автор Сообщение

Bot ®

Стаж: 6 лет 1 месяц

Сообщений: 9

Создавать темы 11-Янв-2019 09:17

[Цитировать]

Главный конструктор (1980) DVBRip [H.264]- Производство: СССР. Свердловская Киностудия
Жанр: Драма
Режиссер: Владимир Семаков
Актеры: Борис Невзоров, Алексей Крыченков, Александр Пороховщиков, Борис Борисов, Валентина Панина, Владимир Гусев, Владимир Суворов, Николай Пеньков, Нуржуман Ихтымбаев, Юрий Каюров
Описание:
Фильм снят по книге Якова Резника «Сотворение брони».
Сюжет драмы рассказывает историю создания легенды Второй Мировой войны — танка Т-34, сыгравшего одну из главных ролей в победе Светского Союза над фашистской Германией. События фильма происходят зимой 1940 года. Германия уже напала на Польшу и над всем миром висит угроза новой войны. СССР нуждается в военной технике. Михаил Кошкин возглавляет конструкторское бюро в Харькове и увлекает всех своими разработками танка Т-34. Две пробные модели хорошо показывают себя на учебном полигоне, но не попадают на демонстрацию в Кремль. Кошкин решает отстоять свою идею и добраться до Москвы, на двух танках, самостоятельно.

Возраст: 12+ (зрителям, достигшим 12 лет)
Продолжительность: 01:03:15+01:06:36
Качество видео: DVBRip
Видео: AVC/H.264, 720x544, ~1940 kbps
Аудио: MP2, 2 ch, 256 kbps
Mediainfo:
Общее
Уникальный идентификатор : 235984626334706252450767161933841625556 (0xB188FC5F2D9FA9F89C14E8076D1CF1D4)
Полное имя : D:\Советские фильмы\Гуляев Владимир Леонидович\Главный конструктор\Главный конструктор 2 серии\Главный конструктор. 1980. 1 серия .mkv
Формат : Matroska
Версия формата : Version 4 / Version 2
Размер файла : 994 Мбайт
Продолжительность : 1 ч. 3 м.
Общий поток : 2197 Кбит/сек
Название фильма : Release for Topmost
Дата кодирования : UTC 2018-12-23 03:40:49
Программа кодирования : mkvmerge v6.2.0 ('Promised Land') built on Apr 28 2013 12:22:01
Библиотека кодирования : libebml v1.3.0 + libmatroska v1.4.0
Attachment : Yes
Видео
Идентификатор : 1
Формат : AVC
Формат/Информация : Advanced Video Codec
Профиль формата : High@L4.1
Параметр CABAC формата : Да
Параметр ReFrames формата : 12 кадров
Идентификатор кодека : V_MPEG4/ISO/AVC
Продолжительность : 1 ч. 3 м.
Битрейт : 1939 Кбит/сек
Ширина : 720 пикселей
Высота : 544 пикселя
Соотношение сторон : 4:3
Режим частоты кадров : Постоянный
Частота кадров : 25,000 кадров/сек
Цветовое пространство : YUV
Субдискретизация насыщенности : 4:2:0
Битовая глубина : 8 бит
Тип развёртки : Прогрессивная
Бит/(Пиксели*Кадры) : 0.198
Размер потока : 859 Мбайт (86%)
Заголовок : Главный конструктор. 1980 (Release for Topmost)
Библиотека кодирования : x264 core 146 r2538 121396c
Настройки программы : cabac=1 / ref=12 / deblock=1:-3:-3 / analyse=0x3:0x113 / me=umh / subme=11 / psy=1 / psy_rd=1.00:0.15 / mixed_ref=1 / me_range=32 / chroma_me=1 / trellis=2 / 8x8dct=1 / cqm=0 / deadzone=21,11 / fast_pskip=0 / chroma_qp_offset=-3 / threads=12 / lookahead_threads=2 / sliced_threads=0 / nr=0 / decimate=0 / interlaced=0 / bluray_compat=0 / constrained_intra=0 / bframes=8 / b_pyramid=2 / b_adapt=2 / b_bias=0 / direct=3 / weightb=1 / open_gop=0 / weightp=2 / keyint=240 / keyint_min=23 / scenecut=40 / intra_refresh=0 / rc_lookahead=40 / rc=2pass / mbtree=1 / bitrate=1939 / ratetol=1.0 / qcomp=0.60 / qpmin=0 / qpmax=69 / qpstep=4 / cplxblur=20.0 / qblur=0.5 / ip_ratio=1.40 / aq=1:0.90
Язык : Russian
Default : Да
Forced : Нет
Аудио
Идентификатор : 2
Формат : MPEG Audio
Версия формата : Version 1
Профиль формата : Layer 2
Идентификатор кодека : A_MPEG/L2
Идентификатор кодека/Подсказка : MP2
Продолжительность : 1 ч. 3 м.
Вид битрейта : Постоянный
Битрейт : 256 Кбит/сек
Каналы : 2 канала
Частота : 48,0 КГц
Метод сжатия : С потерями
Задержка видео : 259 мс.
Размер потока : 116 Мбайт (12%)
Язык : Russian
Default : Да
Forced : Нет
Общее
Уникальный идентификатор : 186744720087857016228737027740859305844 (0x8C7DB98EF0A5424089DEECE91B970F74)
Полное имя : D:\Советские фильмы\Гуляев Владимир Леонидович\Главный конструктор\Главный конструктор 2 серии\Главный конструктор. 1980. 2 серия.mkv
Формат : Matroska
Версия формата : Version 4 / Version 2
Размер файла : 1,02 Гбайт
Продолжительность : 1 ч. 6 м.
Общий поток : 2197 Кбит/сек
Название фильма : Release for Topmost
Дата кодирования : UTC 2018-12-23 03:55:05
Программа кодирования : mkvmerge v6.2.0 ('Promised Land') built on Apr 28 2013 12:22:01
Библиотека кодирования : libebml v1.3.0 + libmatroska v1.4.0
Attachment : Yes
Видео
Идентификатор : 1
Формат : AVC
Формат/Информация : Advanced Video Codec
Профиль формата : High@L4.1
Параметр CABAC формата : Да
Параметр ReFrames формата : 12 кадров
Идентификатор кодека : V_MPEG4/ISO/AVC
Продолжительность : 1 ч. 6 м.
Битрейт : 1939 Кбит/сек
Ширина : 720 пикселей
Высота : 544 пикселя
Соотношение сторон : 4:3
Режим частоты кадров : Постоянный
Частота кадров : 25,000 кадров/сек
Цветовое пространство : YUV
Субдискретизация насыщенности : 4:2:0
Битовая глубина : 8 бит
Тип развёртки : Прогрессивная
Бит/(Пиксели*Кадры) : 0.198
Размер потока : 904 Мбайт (86%)
Заголовок : Главный конструктор. 1980 (Release for Topmost)
Библиотека кодирования : x264 core 146 r2538 121396c
Настройки программы : cabac=1 / ref=12 / deblock=1:-3:-3 / analyse=0x3:0x113 / me=umh / subme=11 / psy=1 / psy_rd=1.00:0.15 / mixed_ref=1 / me_range=32 / chroma_me=1 / trellis=2 / 8x8dct=1 / cqm=0 / deadzone=21,11 / fast_pskip=0 / chroma_qp_offset=-3 / threads=12 / lookahead_threads=2 / sliced_threads=0 / nr=0 / decimate=0 / interlaced=0 / bluray_compat=0 / constrained_intra=0 / bframes=8 / b_pyramid=2 / b_adapt=2 / b_bias=0 / direct=3 / weightb=1 / open_gop=0 / weightp=2 / keyint=240 / keyint_min=23 / scenecut=40 / intra_refresh=0 / rc_lookahead=40 / rc=2pass / mbtree=1 / bitrate=1939 / ratetol=1.0 / qcomp=0.60 / qpmin=0 / qpmax=69 / qpstep=4 / cplxblur=20.0 / qblur=0.5 / ip_ratio=1.40 / aq=1:0.90
Язык : Russian
Default : Да
Forced : Нет
Аудио
Идентификатор : 2
Формат : MPEG Audio
Версия формата : Version 1
Профиль формата : Layer 2
Идентификатор кодека : A_MPEG/L2
Идентификатор кодека/Подсказка : MP2
Продолжительность : 1 ч. 6 м.
Вид битрейта : Постоянный
Битрейт : 256 Кбит/сек
Каналы : 2 канала
Частота : 48,0 КГц
Метод сжатия : С потерями
Задержка видео : 243 мс.
Размер потока : 122 Мбайт (12%)
Язык : Russian
Default : Да
Forced : Нет
Дополнительная информация:
Т-34 создан в конце 1930-х годов, находился в вооруженных силах СССР – России с июня 1940 года по сентябрь 1997-го. Он стал самым массовым танком в мире, состоял на вооружении в 46 государствах и успешно применялся во всех часовых поясах и на всех широтах – от Заполярья до Южной Африки.
В 1942 году за создание Т-34 – нового типа среднего танка – Сталинская премия первой степени присуждена Михаилу Кошкину (посмертно), Александру Морозову и Николаю Кучеренко. Но только ли благодаря этим людям Т-34 стал легендой ХХ столетия?..
Неоспорима роль танка Т-34 на полях сражений Второй мировой войны. Известно, что в 1941 году на третий день войны с Советским Союзом имперскому канцлеру Германии было доложено о двух захваченных танках: тяжелого КВ и среднего Т-34. Гитлер в шоке: никто в военном руководстве рейха не знал о существовании этих танков. «Если бы мне было известно о таких танках у русских, возможно, я не начал бы эту войну», – заявил фюрер своим генералам.
В августе 1941 года, когда до Москвы оставалось всего три сотни километров, Адольф Гитлер приказал 2-й танковой группе генерал-полковника Хайнца Гудериана повернуть на юг – на Харьков, чтобы захватить завод, разработавший и производящий Т-34.
Кстати, к лету 1943 года основным танком вермахта становится Т-V «Пантера», формы броневого корпуса и башни которого были скопированы с Т-34.
В 1945 году, подводя итоги Второй мировой войны, премьер-министр Великобритании лорд Уинстон Черчилль на вопрос журналистов о самом лучшем оружии ответил так: «Три. Английская пушка. Немецкий самолет «Мессершмитт». Русский танк Т-34. Однако если в первых двух случаях мне понятно, как это было сделано, то я совершенно не понимаю, как появился такой танк…»
Данный вопрос занимал и продолжает интересовать очень многих. К примеру, в знаменитой книге-альбоме Стивена Бисти «Чудесные сечения» (Incredible cross-sections), изданной в Лондоне, Нью-Йорке, Сиднее, Дели, Париже, Мюнхене, Москве, Йоханнесбурге, рассказывается о величайших творениях человечества – всех времен и народов. Их всего 18, среди них – танк, и именно Т-34!
После Второй мировой войны Т-34 обрел другую «специальность» – стал самым массовым памятником воинской доблести. И вот что интересно: как бесстрастно свидетельствует телехроника, простояв на постаменте более шести десятилетий, тридцатьчетверка по-прежнему легко заводится и способна самостоятельно передвигаться!
Скриншоты:
Дополнительные скриншоты:
Сравнение с DVD Rip (H.264):
Все одноименные релизы в КлубеВремя раздачи: 24/7 до 5 скачавших (до появления первых 3-5 скачавших)
[realmt.org].t1172471.torrent 
Торрент: Зарегистрирован [ 2019-01-11 09:17 ] · BFBF090EFB2769F4FD451058E7BCF6D19C9F4398

Скачать .torrent

Скачать

21 KB

Статус: проверено
Скачан: 0 раз
Размер: 1,99 GB
terms.php
Последние поблагодарившие
Похожие темы
[Профиль] [ЛС]
Показать сообщения:    
Ответить на тему

Текущее время: 25-Мар 10:40

Часовой пояс: UTC + 3



Вы не можете начинать темы
Вы не можете отвечать на сообщения
Вы не можете редактировать свои сообщения
Вы не можете удалять свои сообщения
Вы не можете голосовать в опросах
Вы не можете прикреплять файлы к сообщениям
Вы можете скачивать файлы