Сегодня идет свободное скачивание без начисления Download

Сорняки / Mauvaises herbes (2018) WEB-DL [1080p] ATV

Ответить на тему
 
Автор Сообщение

Bot ®

Стаж: 3 года 5 месяцев

Сообщений: 13

Создавать темы 11-Янв-2019 09:18

[Цитировать]

Сорняки / Mauvaises herbes (2018) WEB-DL [1080p] ATV - Производство: Франция / Païva Films, Mars Films, StudioCanal
Жанр: Комедия
Режиссер: Керон
Продюсер: Саймон Истоленен, Клоэ Гарбай, Надя Хамлиши
Актеры: Керон, Катрин Денёв, Андре Дюссолье, Луизон Бливе, Альбан Ленуар, Ингрид Доннадье, Лоран Понс
Описание:
Ваэль (Керон), бывший беспризорник, зарабатывает на жизнь мелким мошенничеством со своей приёмной матерью и соучастницей Моник (Катрин Денёв). Когда этот нетрадиционный дуэт обманывает не того парня, Виктора (Андре Дюссолье), старого знакомого Моники, в настоящее время отвечающего за организацию поддержки для проблемных подростков, у него нет другого выбора, кроме как стать его временным секретарём и педагогом, чтобы искупить свою вину. Столкнувшись с шестью своенравными детьми, полными решимости испортить все его усилия, личная история Ваэля и его изобретательские уловки становятся ключом к завоеванию их доверия - и вскоре он понимает, что ему тоже дан шанс исправить своё прошлое и найти своё место в обществе.

Дата мировой премьеры: 5 июня 2018
Продолжительность: 01:44:30
Качество видео: WEB-DL 1080р
Перевод: Дублированный (Невафильм)
Субтитры: Русские (Forced, Full), Французские (Forced, SDH), Английские (Forced, Full)
Видео: H.264, 1920x800 (2.40:1), ~4878 kbps, 24.000 fps
Аудио#1: AAC, 2.0 ch, 192 Kbps - Русский DUB, Невафильм
Аудио#2: AAC, 2.0 ch, 192 Kbps - French, Original
Аудио#3: AC3, 6.0 ch, 384 Kbps - Русский DUB, Невафильм
Аудио#4: AC3, 6.0 ch, 384 Kbps - French, Original
Mediainfo:

Код: выделить все
Общее
Полное имя                               : /Users/NNM-CLUB/Mauvaises.Herbes.2018.WEB-DL.1080p..m4v
Формат                                   : MPEG-4
Идентификатор кодека                     : M4V  (M4V /M4A /mp42/isom)
Размер файла                             : 4,37 Гбайт
Продолжительность                        : 1 ч. 44 м.
Режим общего битрейта                    : Переменный
Общий поток                              : 5982 Кбит/сек
Название фильма                          : Bad Seeds
Исполнитель                              : Kheiron
Режиссёр                                 : Kheiron
Исполнитель                              : Kheiron / Catherine Deneuve / André Dussollier / Hakou Benosmane / Leila Boumedjane / Alban Lenoir / Louison Blivet / Adil Dehbi / Youssouf Wague / Ouassima Zrouki / Joseph Jovanovic / Sofiane Zermani / Ingrid Donnadieu / Leyla Doriane / Marion Christmann / Françoise Remont / Marc David / Alexandre Aubry / Maxime Nourrichard / Killian Taillasson / Yanis Bouregba
Сценарист                                : Kheiron
Продюсер                                 : Simon Istolainen
Студия-производитель                     : Mars Films, paiva films, StudioCanal
Жанр                                     : комедия
Тип содержимого                          : Short Film
Дата записи                              : UTC 2018-11-21 00:00:00
Дата кодирования                         : UTC 2018-12-23 06:22:56
Дата пометки                             : UTC 2018-12-23 06:26:45
Обложка                                  : Yes
Видео
Идентификатор                            : 1
Формат                                   : AVC
Формат/Информация                        : Advanced Video Codec
Профиль формата                          : High@L4
Настройки формата                        : CABAC / 4 Ref Frames
Параметр CABAC формата                   : Да
Параметр ReFrames формата                : 4 кадра
Идентификатор кодека                     : avc1
Идентификатор кодека/Информация          : Advanced Video Coding
Продолжительность                        : 1 ч. 43 м.
Битрейт                                  : 4878 Кбит/сек
Ширина                                   : 1920 пикселей
Высота                                   : 800 пикселей
Соотношение сторон                       : 2,40:1
Режим частоты кадров                     : Переменный
Частота кадров                           : 24,000 кадра/сек
Минимальная частота кадров               : 23,810 кадра/сек
Максимальная частота кадров              : 24,390 кадра/сек
Цветовое пространство                    : YUV
Субдискретизация насыщенности            : 4:2:0
Битовая глубина                          : 8 бит
Тип развёртки                            : Прогрессивная
Бит/(Пиксели*Кадры)                      : 0.132
Размер потока                            : 3,51 Гбайт (80%)
Язык                                     : French
Дата кодирования                         : UTC 2018-12-23 06:22:56
Дата пометки                             : UTC 2018-12-23 06:26:44
Цветовой диапазон                        : Limited
Основные цвета                           : BT.709
Характеристики трансфера                 : BT.709
Коэффициенты матрицы                     : BT.709
Codec configuration box                  : avcC
Аудио #1
Идентификатор                            : 2
Формат                                   : AAC LC
Формат/Информация                        : Advanced Audio Codec Low Complexity
Идентификатор кодека                     : mp4a-40-2
Продолжительность                        : 1 ч. 44 м.
Вид битрейта                             : Переменный
Битрейт                                  : 192 Кбит/сек
Максимальный битрейт                     : 286 Кбит/сек
Каналы                                   : 2 канала
Channel layout                           : L R
Частота                                  : 48,0 КГц
Частота кадров                           : 46,875 кадров/сек (1024 SPF)
Метод сжатия                             : С потерями
Размер потока                            : 146 Мбайт (3%)
Язык                                     : Russian
Default                                  : Да
Alternate group                          : 1
Дата кодирования                         : UTC 2018-12-23 06:22:56
Дата пометки                             : UTC 2018-12-23 06:26:44
Fallback From                            : 4
tagc                                     : public.main-program-content
Аудио #2
Идентификатор                            : 3
Формат                                   : AAC LC
Формат/Информация                        : Advanced Audio Codec Low Complexity
Идентификатор кодека                     : mp4a-40-2
Продолжительность                        : 1 ч. 44 м.
Вид битрейта                             : Переменный
Битрейт                                  : 192 Кбит/сек
Максимальный битрейт                     : 284 Кбит/сек
Каналы                                   : 2 канала
Channel layout                           : L R
Частота                                  : 48,0 КГц
Частота кадров                           : 46,875 кадров/сек (1024 SPF)
Метод сжатия                             : С потерями
Размер потока                            : 145 Мбайт (3%)
Язык                                     : French
Default                                  : Нет
Alternate group                          : 1
Дата кодирования                         : UTC 2018-12-23 06:22:56
Дата пометки                             : UTC 2018-12-23 06:26:44
Fallback From                            : 5
tagc                                     : public.main-program-content
Аудио #3
Идентификатор                            : 4
Формат                                   : AC-3
Формат/Информация                        : Audio Coding 3
Коммерческое название                    : Dolby Digital
Идентификатор кодека                     : ac-3
Продолжительность                        : 1 ч. 44 м.
Вид битрейта                             : Постоянный
Битрейт                                  : 384 Кбит/сек
Каналы                                   : 6 каналов
Channel layout                           : L R C LFE Ls Rs
Частота                                  : 48,0 КГц
Частота кадров                           : 31,250 кадров/сек (1536 SPF)
Битовая глубина                          : 16 бит
Метод сжатия                             : С потерями
Размер потока                            : 287 Мбайт (6%)
Язык                                     : Russian
Service kind                             : Complete Main
Default                                  : Inherited From: 2
Alternate group                          : 1
Дата кодирования                         : UTC 2018-12-23 06:22:56
Дата пометки                             : UTC 2018-12-23 06:26:44
Fallback To                              : 2
tagc                                     : public.main-program-content
Аудио #4
Идентификатор                            : 5
Формат                                   : AC-3
Формат/Информация                        : Audio Coding 3
Коммерческое название                    : Dolby Digital
Идентификатор кодека                     : ac-3
Продолжительность                        : 1 ч. 44 м.
Вид битрейта                             : Постоянный
Битрейт                                  : 384 Кбит/сек
Каналы                                   : 6 каналов
Channel layout                           : L R C LFE Ls Rs
Частота                                  : 48,0 КГц
Частота кадров                           : 31,250 кадров/сек (1536 SPF)
Битовая глубина                          : 16 бит
Метод сжатия                             : С потерями
Размер потока                            : 287 Мбайт (6%)
Язык                                     : French
Service kind                             : Complete Main
Default                                  : Нет
Alternate group                          : 1
Дата кодирования                         : UTC 2018-12-23 06:22:56
Дата пометки                             : UTC 2018-12-23 06:26:44
Fallback To                              : 3
tagc                                     : public.main-program-content
Текст #1
Идентификатор                            : 6
Формат                                   : Timed Text
Режим смешивания                         : sbtl
Идентификатор кодека                     : tx3g
Продолжительность                        : 1 ч. 40 м.
Вид битрейта                             : Переменный
Битрейт                                  : 3 бит/сек
Размер потока                            : 2,29 Кбайт (0%)
Язык                                     : Russian
Default                                  : Да
Forced                                   : Нет
Alternate group                          : 2
Дата кодирования                         : UTC 2018-12-23 06:22:56
Дата пометки                             : UTC 2018-12-23 06:26:44
tagc                                     : public.subtitles.forced-only
Текст #2
Идентификатор                            : 7
Формат                                   : Timed Text
Режим смешивания                         : sbtl
Идентификатор кодека                     : tx3g
Продолжительность                        : 1 ч. 40 м.
Вид битрейта                             : Переменный
Битрейт                                  : 104 бит/сек
Размер потока                            : 77,2 Кбайт (0%)
Язык                                     : Russian
Default                                  : Нет
Forced                                   : Нет
Alternate group                          : 2
Дата кодирования                         : UTC 2018-12-23 06:22:56
Дата пометки                             : UTC 2018-12-23 06:26:44
tagc                                     : public.main-program-content
Текст #3
Идентификатор                            : 8
Формат                                   : Timed Text
Режим смешивания                         : sbtl
Идентификатор кодека                     : tx3g
Продолжительность                        : 1 ч. 33 м.
Вид битрейта                             : Переменный
Битрейт                                  : 3 бит/сек
Размер потока                            : 2,25 Кбайт (0%)
Язык                                     : French
Default                                  : Нет
Forced                                   : Нет
Alternate group                          : 2
Дата кодирования                         : UTC 2018-12-23 06:22:56
Дата пометки                             : UTC 2018-12-23 06:26:44
tagc                                     : public.subtitles.forced-only
Текст #4
Идентификатор                            : 9
Формат                                   : Timed Text
Режим смешивания                         : sbtl
Идентификатор кодека                     : tx3g
Продолжительность                        : 1 ч. 40 м.
Вид битрейта                             : Переменный
Битрейт                                  : 94 бит/сек
Размер потока                            : 69,6 Кбайт (0%)
Язык                                     : French
Default                                  : Нет
Forced                                   : Нет
Alternate group                          : 2
Дата кодирования                         : UTC 2018-12-23 06:22:56
Дата пометки                             : UTC 2018-12-23 06:26:44
tagc                                     : public.accessibility.transcribes-spoken-dialog
Текст #5
Идентификатор                            : 10
Формат                                   : Timed Text
Режим смешивания                         : sbtl
Идентификатор кодека                     : tx3g
Продолжительность                        : 1 ч. 44 м.
Вид битрейта                             : Переменный
Битрейт                                  : 4 бит/сек
Размер потока                            : 2,82 Кбайт (0%)
Язык                                     : English
Default                                  : Нет
Forced                                   : Нет
Alternate group                          : 2
Дата кодирования                         : UTC 2018-12-23 06:22:56
Дата пометки                             : UTC 2018-12-23 06:26:44
tagc                                     : public.subtitles.forced-only
Текст #6
Идентификатор                            : 11
Формат                                   : Timed Text
Режим смешивания                         : sbtl
Идентификатор кодека                     : tx3g
Продолжительность                        : 1 ч. 40 м.
Вид битрейта                             : Переменный
Битрейт                                  : 72 бит/сек
Размер потока                            : 53,1 Кбайт (0%)
Язык                                     : English
Default                                  : Нет
Forced                                   : Нет
Alternate group                          : 2
Дата кодирования                         : UTC 2018-12-23 06:22:56
Дата пометки                             : UTC 2018-12-23 06:26:44
tagc                                     : public.main-program-content
iTunes Meta Tags:
Код: выделить все
Name: Bad Seeds
Artist: Kheiron
Media Kind: Movie
HD Video: 1080p
Genre: комедия
Release Date: 2018-11-21T00:00:00Z
Studio: Mars Films, paiva films, StudioCanal
Cast: Kheiron, Catherine Deneuve, André Dussollier, Hakou Benosmane, Leila Boumedjane, Alban Lenoir, Louison Blivet, Adil Dehbi, Youssouf Wague, Ouassima Zrouki, Joseph Jovanovic, Sofiane Zermani, Ingrid Donnadieu, Leyla Doriane, Marion Christmann, Françoise Remont, Marc David, Alexandre Aubry, Maxime Nourrichard, Killian Taillasson, Yanis Bouregba
Director: Kheiron
Producers: Simon Istolainen
Screenwriters: Kheiron
Скриншоты:
Все одноименные релизы в КлубеВремя раздачи: 24/7 (до появления первых 3-5 скачавших)-
Релиз подготовлен для просмотра на Apple TV, iPad, iPhone, iPod Touch.
Для просмотра данного релиза на компьютере с ОС Windows рекомендуется использовать VLC media player
[Профиль] [ЛС]
Показать сообщения:    
Ответить на тему

Текущее время: 25-Мар 10:41

Часовой пояс: UTC + 3



Вы не можете начинать темы
Вы не можете отвечать на сообщения
Вы не можете редактировать свои сообщения
Вы не можете удалять свои сообщения
Вы не можете голосовать в опросах
Вы не можете прикреплять файлы к сообщениям
Вы не можете скачивать файлы