Сегодня идет свободное скачивание без начисления Download

VA - Союз 3 альбома (1995 - 1997) [FLAC|Lossless|image + .cue]<Pop>

Ответить на тему
 
Автор Сообщение

Bot ®

Стаж: 2 года 6 месяцев

Сообщений: 7

Создавать темы 11-Янв-2019 09:32

[Цитировать]

VA - Союз 3 альбома (1995 - 1997) - Год: 1995-1997
Жанр: Pop
Источник (релизер): eloychik ®
Продолжительность: 03:29:08
Кодек: FLAC
Битрейт: Lossless
Тип рипа: image + .cue
1995 - Союз 15
Издание: Soyuz SZCD0353-95
Продолжительность - 01:08:07
Треклист:
01. Летите ( Л. Ильичёва )
02. Золотая ( В. Казаченко )
03. Обычные дела ( Валерия )
04. Почему ( В. Сюткин )
05. Красавица жена ( А. Буйнов )
06. Скрипка - лиса ( И. Саруханов )
07. Я по тебе скучаю ( Н. Сенчукова )
08. Ты улыбнись ( А. Айвазов )
09. Сказочная тайга ( А. Кристи )
10. Ангел - хранитель ( О. Кормухина )
11. Я боюсь твоей любви ( В. Добрынин )
12. Минаки Да ( С. Минаев )
13. Я не забуду тебя ( В. Кузьмин )
14. Маленькая страна ( Н. Королева )
15. Рано прощаться ( С. Крох )
16. Судьба ( А. Укупник )
17. Борька - бабник ( Дюна )
18. Ночь накануне Рождества ( В. Меладзе )
19. Просто танцевать ( Диана )
20. А ты меня не поняла ( К. Метов )
21. Ночь ( МГК )
22. Про Федю Протасова ( А. Барыкин )
23. Течет ручей ( Золотое кольцо )
24. Непонятный Мой ( Л. Мялик )
Отчёт ЕАС:
Код: выделить все
Exact Audio Copy V1.3 from 2. September 2016
Отчёт EAC об извлечении, выполненном 21. декабря 2018, 20:56
Various Artists / Союз 15
Дисковод: ASUS    DRW-24F1MT   Adapter: 1  ID: 0
Режим чтения                 : Достоверность
Использование точного потока : Да
Отключение кэша аудио        : Да
Использование указателей C2  : Нет
Коррекция смещения при чтении                     : 6
Способность читать области Lead-in и Lead-out     : Нет
Заполнение пропущенных сэмплов тишиной            : Да
Удаление блоков с тишиной в начале и конце        : Нет
При вычислениях CRC использовались нулевые сэмплы : Да
Интерфейс                                         : Встроенный Win32-интерфейс для Win NT/2000
Выходной формат          : Пользовательский кодировщик
Выбранный битрейт        : 128 kBit/s
Качество                 : Высокий
Добавление ID3-тега      : Нет
Утилита сжатия           : C:\Program Files (x86)\Exact Audio Copy\Flac\flac.exe
Дополнительные параметры : -V -8 -T "Date=%year%" -T "Genre=%genre%" %source%
TOC извлечённого CD
     Трек |   Старт  | Длительность | Начальный сектор | Конечный сектор
    ---------------------------------------------------------------------
       1  |  0:00.70 |    3:20.65   |          70      |      15134
       2  |  3:21.60 |    3:10.57   |       15135      |      29441
       3  |  6:32.42 |    3:40.20   |       29442      |      45961
       4  | 10:12.62 |    2:19.28   |       45962      |      56414
       5  | 12:32.15 |    2:27.27   |       56415      |      67466
       6  | 14:59.42 |    3:57.58   |       67467      |      85299
       7  | 18:57.25 |    2:20.67   |       85300      |      95866
       8  | 21:18.17 |    2:07.23   |       95867      |     105414
       9  | 23:25.40 |    2:47.67   |      105415      |     118006
      10  | 26:13.32 |    3:21.65   |      118007      |     133146
      11  | 29:35.22 |    3:11.55   |      133147      |     147526
      12  | 32:47.02 |    2:03.60   |      147527      |     156811
      13  | 34:50.62 |    2:09.43   |      156812      |     166529
      14  | 37:00.30 |    3:40.70   |      166530      |     183099
      15  | 40:41.25 |    2:55.20   |      183100      |     196244
      16  | 43:36.45 |    2:56.30   |      196245      |     209474
      17  | 46:33.00 |    2:51.02   |      209475      |     222301
      18  | 49:24.02 |    3:19.48   |      222302      |     237274
      19  | 52:43.50 |    2:43.52   |      237275      |     249551
      20  | 55:27.27 |    2:04.03   |      249552      |     258854
      21  | 57:31.30 |    2:30.60   |      258855      |     270164
      22  | 60:02.15 |    2:13.27   |      270165      |     280166
      23  | 62:15.42 |    2:03.33   |      280167      |     289424
      24  | 64:19.00 |    3:48.30   |      289425      |     306554
Характеристики диапазона извлечения и сообщения об ошибках
Выбранный диапазон
     Имя файла E:\Раздачи\NNMClub-eloychik ®\Various Artists - Союз   [NNM-Club.to]\Союз - 15\Various Artists - Союз 15.wav
     Пиковый уровень 94.4 %
     Скорость извлечения 2.4 X
     Качество диапазона 100.0 %
     CRC теста 36836CC6
     CRC копии 36836CC6
     Копирование... OK
Ошибок не произошло
AccurateRip: сводка
Трек  1  : извлечено точно (доверие 2)  [A11CEEC8]  (AR v2)
Трек  2  : извлечено точно (доверие 2)  [7098EFBB]  (AR v2)
Трек  3  : извлечено точно (доверие 2)  [2D1A219C]  (AR v2)
Трек  4  : извлечено точно (доверие 2)  [6532C9EA]  (AR v2)
Трек  5  : извлечено точно (доверие 2)  [2759D01F]  (AR v2)
Трек  6  : извлечено точно (доверие 2)  [247F1934]  (AR v2)
Трек  7  : извлечено точно (доверие 2)  [346F4F80]  (AR v2)
Трек  8  : извлечено точно (доверие 2)  [D0D453C4]  (AR v2)
Трек  9  : извлечено точно (доверие 2)  [0B5F3C29]  (AR v2)
Трек 10  : извлечено точно (доверие 2)  [59D237BC]  (AR v2)
Трек 11  : извлечено точно (доверие 2)  [6D4773D4]  (AR v2)
Трек 12  : извлечено точно (доверие 2)  [5FCC5811]  (AR v2)
Трек 13  : извлечено точно (доверие 2)  [1D791A95]  (AR v2)
Трек 14  : извлечено точно (доверие 2)  [7FF16519]  (AR v2)
Трек 15  : извлечено точно (доверие 2)  [1B117C45]  (AR v2)
Трек 16  : извлечено точно (доверие 1)  [CFBAA9B4]  (AR v2)
Трек 17  : извлечено точно (доверие 1)  [6052F8CB]  (AR v2)
Трек 18  : извлечено точно (доверие 1)  [F636DA5D]  (AR v2)
Трек 19  : извлечено точно (доверие 1)  [3E4CBB2E]  (AR v2)
Трек 20  : извлечено точно (доверие 1)  [3564400C]  (AR v2)
Трек 21  : извлечено точно (доверие 1)  [DDF58D32]  (AR v2)
Трек 22  : извлечено точно (доверие 1)  [8E251083]  (AR v2)
Трек 23  : извлечено точно (доверие 1)  [03CC6D90]  (AR v2)
Трек 24  : извлечено точно (доверие 1)  [892C110B]  (AR v2)
Все треки извлечены точно
Конец отчёта
==== Контрольная сумма отчёта 09AB1F06B832D310CEAC79D816EFCC8FDC1914438AE311B194F22944BD3624CB ====
Cue Sheet (.cue):
Код: выделить все
REM GENRE Pop
REM DATE 1995
REM DISCID 660FF718
REM COMMENT "ExactAudioCopy v1.3"
PERFORMER "Various Artists"
TITLE "Союз 15"
REM COMPOSER ""
FILE "Various Artists - Союз 15.flac" WAVE
  TRACK 01 AUDIO
    TITLE "Летите"
    PERFORMER "Л.Ильичева"
    REM COMPOSER ""
    INDEX 00 00:00:00
    INDEX 01 00:00:70
  TRACK 02 AUDIO
    TITLE "Золотая"
    PERFORMER "В.Казаченко"
    REM COMPOSER ""
    INDEX 00 03:21:58
    INDEX 01 03:21:60
  TRACK 03 AUDIO
    TITLE "Обычные дела"
    PERFORMER "Валерия"
    REM COMPOSER ""
    INDEX 00 06:32:40
    INDEX 01 06:32:42
  TRACK 04 AUDIO
    TITLE "Почему"
    PERFORMER "В.Сюткин"
    REM COMPOSER ""
    INDEX 00 10:12:60
    INDEX 01 10:12:62
  TRACK 05 AUDIO
    TITLE "Красавица жена"
    PERFORMER "А.Буйнов"
    REM COMPOSER ""
    INDEX 01 12:32:15
  TRACK 06 AUDIO
    TITLE "Скрипка-лиса"
    PERFORMER "И.Саруханов"
    REM COMPOSER ""
    INDEX 01 14:59:42
  TRACK 07 AUDIO
    TITLE "Я по тебе скучаю"
    PERFORMER "Н.Сенчукова"
    REM COMPOSER ""
    INDEX 01 18:57:25
  TRACK 08 AUDIO
    TITLE "Ты улыбнись"
    PERFORMER "А.Айвазов"
    REM COMPOSER ""
    INDEX 01 21:18:17
  TRACK 09 AUDIO
    TITLE "Сказочная тайга"
    PERFORMER "Агата Кристи"
    REM COMPOSER ""
    INDEX 00 23:25:38
    INDEX 01 23:25:40
  TRACK 10 AUDIO
    TITLE "Ангел-хранитель"
    PERFORMER "О.Кормухина"
    REM COMPOSER ""
    INDEX 00 26:13:30
    INDEX 01 26:13:32
  TRACK 11 AUDIO
    TITLE "Я боюсь твоей любви"
    PERFORMER "В.Добрынин"
    REM COMPOSER ""
    INDEX 01 29:35:22
  TRACK 12 AUDIO
    TITLE "Минаки Да"
    PERFORMER "С.Минаев"
    REM COMPOSER ""
    INDEX 00 32:47:00
    INDEX 01 32:47:02
  TRACK 13 AUDIO
    TITLE "Я не забуду тебя"
    PERFORMER "В.Кузьмин"
    REM COMPOSER ""
    INDEX 01 34:50:62
  TRACK 14 AUDIO
    TITLE "Маленькая страна"
    PERFORMER "Н.Королева"
    REM COMPOSER ""
    INDEX 01 37:00:30
  TRACK 15 AUDIO
    TITLE "Рано прощаться"
    PERFORMER "С.Крох"
    REM COMPOSER ""
    INDEX 01 40:41:25
  TRACK 16 AUDIO
    TITLE "Судьба"
    PERFORMER "А.Укупник"
    REM COMPOSER ""
    INDEX 00 43:36:43
    INDEX 01 43:36:45
  TRACK 17 AUDIO
    TITLE "Борька-бабник"
    PERFORMER "Дюна"
    REM COMPOSER ""
    INDEX 00 46:32:73
    INDEX 01 46:33:00
  TRACK 18 AUDIO
    TITLE "Ночь накануне Рождества"
    PERFORMER "В.Меладзе"
    REM COMPOSER ""
    INDEX 01 49:24:02
  TRACK 19 AUDIO
    TITLE "Просто танцевать"
    PERFORMER "Диана"
    REM COMPOSER ""
    INDEX 01 52:43:50
  TRACK 20 AUDIO
    TITLE "А ты меня не поняла"
    PERFORMER "Кай Метов"
    REM COMPOSER ""
    INDEX 01 55:27:27
  TRACK 21 AUDIO
    TITLE "Ночь"
    PERFORMER "МГК"
    REM COMPOSER ""
    INDEX 00 57:31:28
    INDEX 01 57:31:30
  TRACK 22 AUDIO
    TITLE "Про Федю Протасова"
    PERFORMER "А.Барыкин"
    REM COMPOSER ""
    INDEX 00 60:02:13
    INDEX 01 60:02:15
  TRACK 23 AUDIO
    TITLE "Течет ручей"
    PERFORMER "Золотое кольцо"
    REM COMPOSER ""
    INDEX 00 62:15:40
    INDEX 01 62:15:42
  TRACK 24 AUDIO
    TITLE "Непонятный мой"
    PERFORMER "Л.Мялик"
    REM COMPOSER ""
    INDEX 01 64:19:00
Отчёт auCDtect Task manager:
Код: выделить все
-----------------------
DON'T MODIFY THIS FILE
-----------------------
PERFORMER: auCDtect Task Manager, ver. 1.6.0 RC1 build 1.6.0.1
Copyright (c) 2008-2010 y-soft. All rights reserved
http://y-soft.org
ANALYZER: auCDtect: CD records authenticity detector, version 0.8.2
Copyright (c) 2004 Oleg Berngardt. All rights reserved.
Copyright (c) 2004 Alexander Djourik. All rights reserved.
FILE: Various Artists - Союз 15.flac
  Size: 461545720 Hash: A68445D1F876EA258AA69B7A225373B2 Accuracy: -m0
  Conclusion: CDDA 100%
  Signature: 8CE56E4F4488CB458268866CBDFE50BC1A7F47EA
1995 - Союз 16
Издание: Soyuz SZCD 0470-95
Продолжительность - 01:08:38
Треклист:
01. Милая ( Ф. Киркоров )
02. Падают листья ( А. Буйнов )
03. До свидания ( Л. Долина )
04. Дым сигарет с ментолом ( Нэнси )
05. Здравствуй, чужая милая ( А. Солодуха )
06. Не плачьте, девочки ( Н. Сенчукова )
07. Не говори ( Диана )
08. Даду внедрёж ( Дадуда )
09. Рейвтайм ( Юла и Джимми Джи)
10. Тайна ( МГК )
11. Ночь ( В. Бажиновский )
12. Русская песня ( П. Кашин )
13. Мало огня ( Линда )
14. Так и скажи ( В. Меладзе )
15. Пароходик надежды ( К. Орбакайте )
16. Чистый лист ( Нэнси )
17. Мама, всё о'кей! ( Каролина )
18. Волга - матушка ( Е. Кемеровский )
19. Любовь прошла ( Божья Коровка )
20. Серые глаза ( И. Салтыкова )
21. Куда ты денешься ( В. Чайка )
22. Лавочка ( С. Лазарева )
23. И льётся песня ( Золотое Кольцо )
24. Мэри ( А. Пугачёва )
Отчёт ЕАС:
Код: выделить все
Exact Audio Copy V1.3 from 2. September 2016
Отчёт EAC об извлечении, выполненном 21. декабря 2018, 19:42
Various Artists / Союз 16
Дисковод: ASUS    DRW-24F1MT   Adapter: 1  ID: 0
Режим чтения                 : Достоверность
Использование точного потока : Да
Отключение кэша аудио        : Да
Использование указателей C2  : Нет
Коррекция смещения при чтении                     : 6
Способность читать области Lead-in и Lead-out     : Нет
Заполнение пропущенных сэмплов тишиной            : Да
Удаление блоков с тишиной в начале и конце        : Нет
При вычислениях CRC использовались нулевые сэмплы : Да
Интерфейс                                         : Встроенный Win32-интерфейс для Win NT/2000
Выходной формат          : Пользовательский кодировщик
Выбранный битрейт        : 128 kBit/s
Качество                 : Высокий
Добавление ID3-тега      : Нет
Утилита сжатия           : C:\Program Files (x86)\Exact Audio Copy\Flac\flac.exe
Дополнительные параметры : -V -8 -T "Date=%year%" -T "Genre=%genre%" %source%
TOC извлечённого CD
     Трек |   Старт  | Длительность | Начальный сектор | Конечный сектор
    ---------------------------------------------------------------------
       1  |  0:00.10 |    2:30.42   |          10      |      11301
       2  |  2:30.52 |    3:09.35   |       11302      |      25511
       3  |  5:40.12 |    3:10.50   |       25512      |      39811
       4  |  8:50.62 |    3:48.00   |       39812      |      56911
       5  | 12:38.62 |    1:55.50   |       56912      |      65586
       6  | 14:34.37 |    2:13.43   |       65587      |      75604
       7  | 16:48.05 |    2:29.70   |       75605      |      86849
       8  | 19:18.00 |    3:10.02   |       86850      |     101101
       9  | 22:28.02 |    2:34.43   |      101102      |     112694
      10  | 25:02.45 |    2:52.27   |      112695      |     125621
      11  | 27:54.72 |    2:22.35   |      125622      |     136306
      12  | 30:17.32 |    3:44.38   |      136307      |     153144
      13  | 34:01.70 |    2:41.17   |      153145      |     165236
      14  | 36:43.12 |    2:47.55   |      165237      |     177816
      15  | 39:30.67 |    2:44.53   |      177817      |     190169
      16  | 42:15.45 |    3:53.55   |      190170      |     207699
      17  | 46:09.25 |    1:41.67   |      207700      |     215341
      18  | 47:51.17 |    2:22.08   |      215342      |     225999
      19  | 50:13.25 |    3:37.00   |      226000      |     242274
      20  | 53:50.25 |    1:50.17   |      242275      |     250541
      21  | 55:40.42 |    2:58.60   |      250542      |     263951
      22  | 58:39.27 |    2:14.23   |      263952      |     274024
      23  | 60:53.50 |    2:39.15   |      274025      |     285964
      24  | 63:32.65 |    5:04.55   |      285965      |     308819
Характеристики диапазона извлечения и сообщения об ошибках
Выбранный диапазон
     Имя файла E:\Раздачи\NNMClub-eloychik ®\Various Artists - Союз   [NNM-Club.to]\Союз - 16\Various Artists - Союз 16.wav
     Пиковый уровень 89.1 %
     Скорость извлечения 2.4 X
     Качество диапазона 100.0 %
     CRC теста 5910D5D9
     CRC копии 5910D5D9
     Копирование... OK
Ошибок не произошло
AccurateRip: сводка
Трек  1  : извлечено точно (доверие 1)  [83E03F42]  (AR v2)
Трек  2  : извлечено точно (доверие 1)  [937BF22A]  (AR v2)
Трек  3  : извлечено точно (доверие 1)  [4598A3CF]  (AR v2)
Трек  4  : извлечено точно (доверие 1)  [A735F8E7]  (AR v2)
Трек  5  : извлечено точно (доверие 1)  [2A87D3DD]  (AR v2)
Трек  6  : извлечено точно (доверие 1)  [A01F85CB]  (AR v2)
Трек  7  : извлечено точно (доверие 1)  [0F42D9D6]  (AR v2)
Трек  8  : извлечено точно (доверие 1)  [543C86D1]  (AR v2)
Трек  9  : извлечено точно (доверие 1)  [32708D94]  (AR v2)
Трек 10  : извлечено точно (доверие 1)  [34588359]  (AR v2)
Трек 11  : извлечено точно (доверие 1)  [F5E97C26]  (AR v2)
Трек 12  : извлечено точно (доверие 1)  [90414D89]  (AR v2)
Трек 13  : извлечено точно (доверие 1)  [EE70EB9F]  (AR v2)
Трек 14  : извлечено точно (доверие 1)  [090491B7]  (AR v2)
Трек 15  : извлечено точно (доверие 1)  [13B4E90B]  (AR v2)
Трек 16  : извлечено точно (доверие 1)  [4CFD5B79]  (AR v2)
Трек 17  : извлечено точно (доверие 1)  [CD656BF6]  (AR v2)
Трек 18  : извлечено точно (доверие 1)  [C011A934]  (AR v2)
Трек 19  : извлечено точно (доверие 1)  [91FCE214]  (AR v2)
Трек 20  : извлечено точно (доверие 1)  [BBB4CF31]  (AR v2)
Трек 21  : извлечено точно (доверие 1)  [912A4629]  (AR v2)
Трек 22  : извлечено точно (доверие 1)  [AF55EC80]  (AR v2)
Трек 23  : извлечено точно (доверие 1)  [4CE59AD2]  (AR v2)
Трек 24  : извлечено точно (доверие 1)  [CF08E57F]  (AR v2)
Все треки извлечены точно
Конец отчёта
==== Контрольная сумма отчёта A6C2E0D6A453990538272C70E7F88A4D9BD93EC87D668D867321252D71FBB6F7 ====
Cue Sheet (.cue):
Код: выделить все
REM GENRE Pop
REM DATE 1995
REM DISCID 27101518
REM COMMENT "ExactAudioCopy v1.3"
PERFORMER "Various Artists"
TITLE "Союз 16"
REM COMPOSER ""
FILE "Various Artists - Союз 16.flac" WAVE
  TRACK 01 AUDIO
    TITLE "Милая"
    PERFORMER "Ф. Киркоров"
    REM COMPOSER ""
    INDEX 00 00:00:00
    INDEX 01 00:00:10
  TRACK 02 AUDIO
    TITLE "Падают листья"
    PERFORMER "А. Буйнов"
    REM COMPOSER ""
    INDEX 01 02:30:52
  TRACK 03 AUDIO
    TITLE "До cвидания"
    PERFORMER "Л. Долина"
    REM COMPOSER ""
    INDEX 01 05:40:12
  TRACK 04 AUDIO
    TITLE "Дым сигарет с ментолом"
    PERFORMER "Нэнси"
    REM COMPOSER ""
    INDEX 01 08:50:62
  TRACK 05 AUDIO
    TITLE "Здравствуй, чужая милая"
    PERFORMER "А. Солодуха"
    REM COMPOSER ""
    INDEX 01 12:38:62
  TRACK 06 AUDIO
    TITLE "Не плачьте, девочки"
    PERFORMER "Н. Сенчукова"
    REM COMPOSER ""
    INDEX 01 14:34:37
  TRACK 07 AUDIO
    TITLE "Не говори"
    PERFORMER "Диана"
    REM COMPOSER ""
    INDEX 00 16:48:04
    INDEX 01 16:48:05
  TRACK 08 AUDIO
    TITLE "Даду внедрёж"
    PERFORMER "Дадуда"
    REM COMPOSER ""
    INDEX 00 19:17:74
    INDEX 01 19:18:00
  TRACK 09 AUDIO
    TITLE "Рейвтайм"
    PERFORMER "Юла и Джимми Джи"
    REM COMPOSER ""
    INDEX 01 22:28:02
  TRACK 10 AUDIO
    TITLE "Тайна"
    PERFORMER "МГК"
    REM COMPOSER ""
    INDEX 00 25:02:44
    INDEX 01 25:02:45
  TRACK 11 AUDIO
    TITLE "Ночь"
    PERFORMER "В. Бажиновский"
    REM COMPOSER ""
    INDEX 01 27:54:72
  TRACK 12 AUDIO
    TITLE "Русская песня"
    PERFORMER "П. Кашин"
    REM COMPOSER ""
    INDEX 01 30:17:32
  TRACK 13 AUDIO
    TITLE "Мало огня"
    PERFORMER "Линда"
    REM COMPOSER ""
    INDEX 00 33:48:42
    INDEX 01 34:01:70
  TRACK 14 AUDIO
    TITLE "Так и скажи"
    PERFORMER "В. Меладзе"
    REM COMPOSER ""
    INDEX 01 36:43:12
  TRACK 15 AUDIO
    TITLE "Пароходик надежды"
    PERFORMER "К. Орбакайте"
    REM COMPOSER ""
    INDEX 01 39:30:67
  TRACK 16 AUDIO
    TITLE "Чистый лист"
    PERFORMER "Нэнси"
    REM COMPOSER ""
    INDEX 00 42:15:44
    INDEX 01 42:15:45
  TRACK 17 AUDIO
    TITLE "Мама, всё о'кей"
    PERFORMER "Каролина"
    REM COMPOSER ""
    INDEX 00 46:09:24
    INDEX 01 46:09:25
  TRACK 18 AUDIO
    TITLE "Волга-матушка"
    PERFORMER "Е. Кемеровский"
    REM COMPOSER ""
    INDEX 01 47:51:17
  TRACK 19 AUDIO
    TITLE "Любовь прошла"
    PERFORMER "Божья коровка"
    REM COMPOSER ""
    INDEX 00 50:13:24
    INDEX 01 50:13:25
  TRACK 20 AUDIO
    TITLE "Серые глаза"
    PERFORMER "И. Салтыкова"
    REM COMPOSER ""
    INDEX 00 53:50:24
    INDEX 01 53:50:25
  TRACK 21 AUDIO
    TITLE "Куда ты денешься"
    PERFORMER "В. Чайка"
    REM COMPOSER ""
    INDEX 01 55:40:42
  TRACK 22 AUDIO
    TITLE "Лавочка"
    PERFORMER "С. Лазарева"
    REM COMPOSER ""
    INDEX 01 58:39:27
  TRACK 23 AUDIO
    TITLE "И льётся песня"
    PERFORMER "Золотое кольцо"
    REM COMPOSER ""
    INDEX 00 60:53:49
    INDEX 01 60:53:50
  TRACK 24 AUDIO
    TITLE "Мэри"
    PERFORMER "А. Пугачёва"
    REM COMPOSER ""
    INDEX 00 63:32:64
    INDEX 01 63:32:65
Отчёт auCDtect Task manager:
Код: выделить все
-----------------------
DON'T MODIFY THIS FILE
-----------------------
PERFORMER: auCDtect Task Manager, ver. 1.6.0 RC1 build 1.6.0.1
Copyright (c) 2008-2010 y-soft. All rights reserved
http://y-soft.org
ANALYZER: auCDtect: CD records authenticity detector, version 0.8.2
Copyright (c) 2004 Oleg Berngardt. All rights reserved.
Copyright (c) 2004 Alexander Djourik. All rights reserved.
FILE: Various Artists - Союз 16.flac
  Size: 502664548 Hash: 51A5CB82CEEBFB382D25C11550B22F2C Accuracy: -m0
  Conclusion: CDDA 100%
  Signature: 25F4D310264EDD6DE4C7081EC17B2662977AF504
1997 - Союз 21
Издание: Soyuz SZCD 0877-97
Продолжительность - 01:12:23
Треклист:
01. Лунные ночи ( А. Апина и М. Насыров )
02. Видение ( М. Леонидoв )
03. Серебристый тополь ( Т. Буланова )
04. Где - то далеко идут дожди ( К. Метов )
05. А я в воду войду ( А. Пугачёва )
06. Глазунья ( Русский размер и пр. Лебединский )
07. Танго ( А. Горбачёва )
08. Гитара ( Демидыч )
09. Где - то за морями ( Клементия )
10. Далеко ( В. Сюткин )
11. Полёт ( А. Цой )
12. Лилипутская любовь ( Ногу свело! )
13. Ты кинула ( Ляпис Трубецкой )
14. Воздушный змей ( Дюна )
15. Потому что нельзя быть красивой такой ( Белый орёл )
16. Самба белого мотылька ( В. Меладзе )
17. Королева ( Леонид Агутин и Анжелика Варум )
18. Мой ненаглядный ( Т. Буланова )
19. Багамы, мама ( Балаган лимитед )
20. Влюблённый самолёт ( Л Черникова )
21. Не любить невозможо ( Рок-острова )
22. Единственная ( Ф. Киркоров )
23. Чашка кофею ( М. Хлебникова )
24. Рыцарь ( А. Шевченко )
25. Отшумели летние дожди ( Shura )
26. Не перебивай ( А. Смехова )
27. Туда - сюда ( М. Насыров )
28. Тук - тук ( А. Апина )
29. Что ты имела ( Несчастный случай )
30. Тучи над городом встали ( Чиж & Co )
Отчёт ЕАС:
Код: выделить все
Exact Audio Copy V1.3 from 2. September 2016
Отчёт EAC об извлечении, выполненном 21. декабря 2018, 18:04
Various Artists / Союз 21
Дисковод: ASUS    DRW-24F1MT   Adapter: 1  ID: 0
Режим чтения                 : Достоверность
Использование точного потока : Да
Отключение кэша аудио        : Да
Использование указателей C2  : Нет
Коррекция смещения при чтении                     : 6
Способность читать области Lead-in и Lead-out     : Нет
Заполнение пропущенных сэмплов тишиной            : Да
Удаление блоков с тишиной в начале и конце        : Нет
При вычислениях CRC использовались нулевые сэмплы : Да
Интерфейс                                         : Встроенный Win32-интерфейс для Win NT/2000
Выходной формат          : Пользовательский кодировщик
Выбранный битрейт        : 128 kBit/s
Качество                 : Высокий
Добавление ID3-тега      : Нет
Утилита сжатия           : C:\Program Files (x86)\Exact Audio Copy\Flac\flac.exe
Дополнительные параметры : -V -8 -T "Date=%year%" -T "Genre=%genre%" %source%
TOC извлечённого CD
     Трек |   Старт  | Длительность | Начальный сектор | Конечный сектор
    ---------------------------------------------------------------------
       1  |  0:00.10 |    2:48.57   |          10      |      12666
       2  |  2:48.67 |    2:05.73   |       12667      |      22114
       3  |  4:54.65 |    2:01.30   |       22115      |      31219
       4  |  6:56.20 |    2:35.35   |       31220      |      42879
       5  |  9:31.55 |    2:22.52   |       42880      |      53581
       6  | 11:54.32 |    2:36.55   |       53582      |      65336
       7  | 14:31.12 |    2:20.35   |       65337      |      75871
       8  | 16:51.47 |    2:27.53   |       75872      |      86949
       9  | 19:19.25 |    2:37.45   |       86950      |      98769
      10  | 21:56.70 |    2:14.65   |       98770      |     108884
      11  | 24:11.60 |    2:24.25   |      108885      |     119709
      12  | 26:36.10 |    2:34.10   |      119710      |     131269
      13  | 29:10.20 |    2:06.57   |      131270      |     140776
      14  | 31:17.02 |    2:27.65   |      140777      |     151866
      15  | 33:44.67 |    2:27.43   |      151867      |     162934
      16  | 36:12.35 |    2:42.25   |      162935      |     175109
      17  | 38:54.60 |    2:18.30   |      175110      |     185489
      18  | 41:13.15 |    2:37.05   |      185490      |     197269
      19  | 43:50.20 |    1:57.42   |      197270      |     206086
      20  | 45:47.62 |    2:10.45   |      206087      |     215881
      21  | 47:58.32 |    2:09.63   |      215882      |     225619
      22  | 50:08.20 |    2:37.50   |      225620      |     237444
      23  | 52:45.70 |    2:15.70   |      237445      |     247639
      24  | 55:01.65 |    2:24.32   |      247640      |     258471
      25  | 57:26.22 |    2:22.18   |      258472      |     269139
      26  | 59:48.40 |    2:23.30   |      269140      |     279894
      27  | 62:11.70 |    2:20.00   |      279895      |     290394
      28  | 64:31.70 |    2:16.57   |      290395      |     300651
      29  | 66:48.52 |    2:50.15   |      300652      |     313416
      30  | 69:38.67 |    2:43.65   |      313417      |     325706
Характеристики диапазона извлечения и сообщения об ошибках
Выбранный диапазон
     Имя файла E:\Раздачи\NNMClub-eloychik ®\Various Artists - Союз   [NNM-Club.to]\Союз - 21\Various Artists - Союз 21.wav
     Пиковый уровень 98.8 %
     Скорость извлечения 2.4 X
     Качество диапазона 100.0 %
     CRC теста 2BDF08FE
     CRC копии 2BDF08FE
     Копирование... OK
Ошибок не произошло
AccurateRip: сводка
Трек  1  : извлечено точно (доверие 1)  [88D1725B]  (AR v2)
Трек  2  : извлечено точно (доверие 1)  [4B86478F]  (AR v2)
Трек  3  : извлечено точно (доверие 1)  [C78FF9FB]  (AR v2)
Трек  4  : извлечено точно (доверие 1)  [D463F68F]  (AR v2)
Трек  5  : извлечено точно (доверие 1)  [9F36CB18]  (AR v2)
Трек  6  : извлечено точно (доверие 1)  [C74591CD]  (AR v2)
Трек  7  : извлечено точно (доверие 1)  [0B2F0D1C]  (AR v2)
Трек  8  : извлечено точно (доверие 1)  [A4FA53C3]  (AR v2)
Трек  9  : извлечено точно (доверие 1)  [FAC6521A]  (AR v2)
Трек 10  : извлечено точно (доверие 1)  [D4AB45C9]  (AR v2)
Трек 11  : извлечено точно (доверие 1)  [B815DE80]  (AR v2)
Трек 12  : извлечено точно (доверие 1)  [B5E0B46F]  (AR v2)
Трек 13  : извлечено точно (доверие 1)  [E4B23CCD]  (AR v2)
Трек 14  : извлечено точно (доверие 1)  [1325AB11]  (AR v2)
Трек 15  : извлечено точно (доверие 1)  [17395EA2]  (AR v2)
Трек 16  : извлечено точно (доверие 1)  [3C39A326]  (AR v2)
Трек 17  : извлечено точно (доверие 1)  [99E6869A]  (AR v2)
Трек 18  : извлечено точно (доверие 1)  [6E557F58]  (AR v2)
Трек 19  : извлечено точно (доверие 1)  [F2532587]  (AR v2)
Трек 20  : извлечено точно (доверие 1)  [84854A49]  (AR v2)
Трек 21  : извлечено точно (доверие 1)  [F160C94D]  (AR v2)
Трек 22  : извлечено точно (доверие 1)  [81E0AF99]  (AR v2)
Трек 23  : извлечено точно (доверие 1)  [BDE4605F]  (AR v2)
Трек 24  : извлечено точно (доверие 1)  [7DCAB00A]  (AR v2)
Трек 25  : извлечено точно (доверие 1)  [7E117650]  (AR v2)
Трек 26  : извлечено точно (доверие 1)  [0E85CB25]  (AR v2)
Трек 27  : извлечено точно (доверие 1)  [FE1DEE1E]  (AR v2)
Трек 28  : извлечено точно (доверие 1)  [109043FA]  (AR v2)
Трек 29  : извлечено точно (доверие 1)  [FF3CE8F6]  (AR v2)
Трек 30  : извлечено точно (доверие 1)  [2AA07ECF]  (AR v2)
Все треки извлечены точно
Конец отчёта
==== Контрольная сумма отчёта C665CFF21814BCA68EFB8A7707B7F1F82AFA0FDE0D5FA3B8CA6CCF4EF2A3A055 ====
Cue Sheet (.cue):
Код: выделить все
REM GENRE Pop
REM DATE 1997
REM DISCID A510F61E
REM COMMENT "ExactAudioCopy v1.3"
PERFORMER "Various Artists"
TITLE "Союз 21"
REM COMPOSER ""
FILE "Various Artists - Союз 21.flac" WAVE
  TRACK 01 AUDIO
    TITLE "Лунные ночи"
    PERFORMER "Алена Апина и Мурат Насыров"
    REM COMPOSER ""
    INDEX 00 00:00:00
    INDEX 01 00:00:10
  TRACK 02 AUDIO
    TITLE "Видение"
    PERFORMER "Максим Леонидов"
    REM COMPOSER ""
    INDEX 01 02:48:67
  TRACK 03 AUDIO
    TITLE "Серебристый тополь"
    PERFORMER "Татьяна Буланова"
    REM COMPOSER ""
    INDEX 00 04:54:64
    INDEX 01 04:54:65
  TRACK 04 AUDIO
    TITLE "Где далеко идут дожди"
    PERFORMER "Кай Метов"
    REM COMPOSER ""
    INDEX 00 06:56:19
    INDEX 01 06:56:20
  TRACK 05 AUDIO
    TITLE "А я в воду войду"
    PERFORMER "Алла Пугачева "
    REM COMPOSER ""
    INDEX 00 09:31:54
    INDEX 01 09:31:55
  TRACK 06 AUDIO
    TITLE "Глазунья"
    PERFORMER "Русский размер и профессор Лебединский"
    REM COMPOSER ""
    INDEX 01 11:54:32
  TRACK 07 AUDIO
    TITLE "Танго"
    PERFORMER "Алла Горбачева"
    REM COMPOSER ""
    INDEX 01 14:31:12
  TRACK 08 AUDIO
    TITLE "Гитара"
    PERFORMER "Демидыч"
    REM COMPOSER ""
    INDEX 01 16:51:47
  TRACK 09 AUDIO
    TITLE "Где-то за морями"
    PERFORMER "Клементия"
    REM COMPOSER ""
    INDEX 00 19:19:24
    INDEX 01 19:19:25
  TRACK 10 AUDIO
    TITLE "Далеко"
    PERFORMER "Валерий Сюткин"
    REM COMPOSER ""
    INDEX 00 21:56:69
    INDEX 01 21:56:70
  TRACK 11 AUDIO
    TITLE "Полет"
    PERFORMER "Анита Цой"
    REM COMPOSER ""
    INDEX 00 24:11:59
    INDEX 01 24:11:60
  TRACK 12 AUDIO
    TITLE "Лилипутская любовь"
    PERFORMER "Ногу свело"
    REM COMPOSER ""
    INDEX 00 26:36:09
    INDEX 01 26:36:10
  TRACK 13 AUDIO
    TITLE "Ты кинула"
    PERFORMER "Ляпис Трубецкой"
    REM COMPOSER ""
    INDEX 00 29:10:19
    INDEX 01 29:10:20
  TRACK 14 AUDIO
    TITLE "Воздушный змей"
    PERFORMER "Дюна"
    REM COMPOSER ""
    INDEX 01 31:17:02
  TRACK 15 AUDIO
    TITLE "Потому что нельзя..."
    PERFORMER "Белый орел"
    REM COMPOSER ""
    INDEX 01 33:44:67
  TRACK 16 AUDIO
    TITLE "Самба белого мотылька"
    PERFORMER "Валерий Меладзе"
    REM COMPOSER ""
    INDEX 00 36:12:34
    INDEX 01 36:12:35
  TRACK 17 AUDIO
    TITLE "Королева"
    PERFORMER "Леонид Агутин"
    REM COMPOSER ""
    INDEX 00 38:54:59
    INDEX 01 38:54:60
  TRACK 18 AUDIO
    TITLE "Мой ненаглядный"
    PERFORMER "Татьяна Буланова"
    REM COMPOSER ""
    INDEX 00 41:13:14
    INDEX 01 41:13:15
  TRACK 19 AUDIO
    TITLE "Багамы, мама"
    PERFORMER "Балаган лимитед"
    REM COMPOSER ""
    INDEX 00 43:50:19
    INDEX 01 43:50:20
  TRACK 20 AUDIO
    TITLE "Влюбленный самолет"
    PERFORMER "Лариса Черникова"
    REM COMPOSER ""
    INDEX 01 45:47:62
  TRACK 21 AUDIO
    TITLE "Не любить невозможно"
    PERFORMER "Рок-острова"
    REM COMPOSER ""
    INDEX 01 47:58:32
  TRACK 22 AUDIO
    TITLE "Единственная"
    PERFORMER "Филипп Киркоров"
    REM COMPOSER ""
    INDEX 00 50:08:19
    INDEX 01 50:08:20
  TRACK 23 AUDIO
    TITLE "Чашка кофею"
    PERFORMER "Марина Хлебникова"
    REM COMPOSER ""
    INDEX 00 52:45:69
    INDEX 01 52:45:70
  TRACK 24 AUDIO
    TITLE "Рыцарь"
    PERFORMER "Александр Шевченко"
    REM COMPOSER ""
    INDEX 00 55:01:64
    INDEX 01 55:01:65
  TRACK 25 AUDIO
    TITLE "Отшумели летние дожди"
    PERFORMER "Shura"
    REM COMPOSER ""
    INDEX 01 57:26:22
  TRACK 26 AUDIO
    TITLE "Не перебивай"
    PERFORMER "Алика Смехова"
    REM COMPOSER ""
    INDEX 00 59:48:39
    INDEX 01 59:48:40
  TRACK 27 AUDIO
    TITLE "Туда-сюда"
    PERFORMER "Мурат Насыров"
    REM COMPOSER ""
    INDEX 01 62:11:70
  TRACK 28 AUDIO
    TITLE "Тук-тук"
    PERFORMER "Апина Алена"
    REM COMPOSER ""
    INDEX 00 64:31:69
    INDEX 01 64:31:70
  TRACK 29 AUDIO
    TITLE "Что ты имела"
    PERFORMER "Несчастный случай"
    REM COMPOSER ""
    INDEX 01 66:48:52
  TRACK 30 AUDIO
    TITLE "Тучи над городом встали"
    PERFORMER "Чиж и Со"
    REM COMPOSER ""
    INDEX 01 69:38:67
Отчёт auCDtect Task manager:
Код: выделить все
-----------------------
DON'T MODIFY THIS FILE
-----------------------
PERFORMER: auCDtect Task Manager, ver. 1.6.0 RC1 build 1.6.0.1
Copyright (c) 2008-2010 y-soft. All rights reserved
http://y-soft.org
ANALYZER: auCDtect: CD records authenticity detector, version 0.8.2
Copyright (c) 2004 Oleg Berngardt. All rights reserved.
Copyright (c) 2004 Alexander Djourik. All rights reserved.
FILE: Various Artists - Союз 21.flac
  Size: 528657493 Hash: C25297A35DDB9DB8E54D32315E1D733B Accuracy: -m0
  Conclusion: CDDA 99%
  Signature: 492F89BE117EB63874790F451599AEB49016D5BC
Время раздачи: Пн-Пт с 17:00 до 20:00 и по возможности-

Поглощение/вытеснение
Только с согласия релизера

fanDYNAMO
[Профиль] [ЛС]
Показать сообщения:    
Ответить на тему

Текущее время: 25-Мар 11:15

Часовой пояс: UTC + 3



Вы не можете начинать темы
Вы не можете отвечать на сообщения
Вы не можете редактировать свои сообщения
Вы не можете удалять свои сообщения
Вы не можете голосовать в опросах
Вы не можете прикреплять файлы к сообщениям
Вы не можете скачивать файлы