Сегодня идет свободное скачивание без начисления Download

VA - Simply Accordeon (2013) 4CD Box Set [FLAC|Lossless|image + .cue]<Accordion, Instrumental>

Ответить на тему
 
Автор Сообщение

Bot ®

Стаж: 3 года

Сообщений: 6

Создавать темы 11-Янв-2019 09:32

[Цитировать]

VA - Simply Accordeon (2013) 4CD Box Set - Год: 2013
Жанр: Accordion, Instrumental
Издание: Union Square SIMPLYCD122
Источник (релизер): eloychik ®
Продолжительность: 03:12:41
Кодек: FLAC
Битрейт: Lossless
Тип рипа: image + .cue
CD1 - Paris Accordeon
Продолжительность - 00:47:19
Треклист:
01. Un Gamin De Paris ( Max Marino )
02. Paris Canaille ( Eric Bouvelle )
03. Paris, Mon Gai Paris ( Max Marino Et Son Accordeon )
04. Sous Le Ciel De Paris ( Eric Bouvelle )
05. Menilmontant ( Eric Bouvelle )
06. Under The Bridges Of Paris ( L'Accordeoniste )
07. Ca... C'est Paris! ( Eric Bouvelle )
08. A Montparnasse ( Corinne Lesage )
09. Retour A Paris / Revoir Paris ( Eric Bouvelle )
10. Photos Souvenirs ( Armand Gomez )
11. La Romance De Paris ( Eric Bouvelle )
12. Ciel De Paris ( Max Marino )
13. Paris Sacre-Coeur ( Le Duo )
14. C'est Magnifique ( L'Accordeoniste )
15. Sur Les Quais Du Vieux Paris ( Max Marino )
16. Grands Boulevards ( Max Marino )
17. A Paris ( Max Marino )
18. Moulin Rouge ( Eric Bouvelle )
Отчёт ЕАС:
Код: выделить все
Exact Audio Copy V1.3 from 2. September 2016
Отчёт EAC об извлечении, выполненном 19. декабря 2018, 23:09
Various Artists / Simply Accordeon (CD1 - Paris Accordeon)
Дисковод: ASUS    DRW-24F1MT   Adapter: 1  ID: 0
Режим чтения                 : Достоверность
Использование точного потока : Да
Отключение кэша аудио        : Да
Использование указателей C2  : Нет
Коррекция смещения при чтении                     : 6
Способность читать области Lead-in и Lead-out     : Нет
Заполнение пропущенных сэмплов тишиной            : Да
Удаление блоков с тишиной в начале и конце        : Нет
При вычислениях CRC использовались нулевые сэмплы : Да
Интерфейс                                         : Встроенный Win32-интерфейс для Win NT/2000
Выходной формат          : Пользовательский кодировщик
Выбранный битрейт        : 128 kBit/s
Качество                 : Высокий
Добавление ID3-тега      : Нет
Утилита сжатия           : C:\Program Files (x86)\Exact Audio Copy\Flac\flac.exe
Дополнительные параметры : -V -8 -T "Date=%year%" -T "Genre=%genre%" %source%
TOC извлечённого CD
     Трек |   Старт  | Длительность | Начальный сектор | Конечный сектор
    ---------------------------------------------------------------------
       1  |  0:00.00 |    2:21.24   |           0      |      10598
       2  |  2:21.24 |    2:44.18   |       10599      |      22916
       3  |  5:05.42 |    1:43.53   |       22917      |      30694
       4  |  6:49.20 |    2:35.16   |       30695      |      42335
       5  |  9:24.36 |    3:01.06   |       42336      |      55916
       6  | 12:25.42 |    2:35.48   |       55917      |      67589
       7  | 15:01.15 |    3:41.12   |       67590      |      84176
       8  | 18:42.27 |    2:16.43   |       84177      |      94419
       9  | 20:58.70 |    2:36.70   |       94420      |     106189
      10  | 23:35.65 |    2:45.04   |      106190      |     118568
      11  | 26:20.69 |    3:25.43   |      118569      |     133986
      12  | 29:46.37 |    2:35.33   |      133987      |     145644
      13  | 32:21.70 |    2:42.15   |      145645      |     157809
      14  | 35:04.10 |    2:15.29   |      157810      |     167963
      15  | 37:19.39 |    1:59.02   |      167964      |     176890
      16  | 39:18.41 |    2:14.30   |      176891      |     186970
      17  | 41:32.71 |    2:16.36   |      186971      |     197206
      18  | 43:49.32 |    3:29.46   |      197207      |     212927
Характеристики диапазона извлечения и сообщения об ошибках
Выбранный диапазон
     Имя файла E:\Раздачи\NNMClub-eloychik ®\Various Artists - Simply Accordeon [NNM-Club.to]\CD1 - Paris Accordeon\Various Artists - Simply Accordeon (CD1 - Paris Accordeon).wav
     Пиковый уровень 97.7 %
     Скорость извлечения 6.9 X
     Качество диапазона 100.0 %
     CRC теста C5CC23DA
     CRC копии C5CC23DA
     Копирование... OK
Ошибок не произошло
AccurateRip: сводка
Трек  1  отсутствует в базе данных
Трек  2  отсутствует в базе данных
Трек  3  отсутствует в базе данных
Трек  4  отсутствует в базе данных
Трек  5  отсутствует в базе данных
Трек  6  отсутствует в базе данных
Трек  7  отсутствует в базе данных
Трек  8  отсутствует в базе данных
Трек  9  отсутствует в базе данных
Трек 10  отсутствует в базе данных
Трек 11  отсутствует в базе данных
Трек 12  отсутствует в базе данных
Трек 13  отсутствует в базе данных
Трек 14  отсутствует в базе данных
Трек 15  отсутствует в базе данных
Трек 16  отсутствует в базе данных
Трек 17  отсутствует в базе данных
Трек 18  отсутствует в базе данных
Ни одного трека нет в базе AccurateRip
Конец отчёта
==== Контрольная сумма отчёта E1D49A96CC16124B66B15580607262882EE251A935044D3249D822FC361E6598 ====
CD2 - The Great Classics Of French Musette
Продолжительность - 00:45:32
Треклист:
01. La Vie en Rose ( AndrI Blot )
02. C'est Si Bon ( Max Marino )
03. Reine De Musette ( Marcel Fontaine )
04. J'ai Deux Amours ( Max Marino )
05. Mon Amant de Saint-Jean ( Eric Bouvelle )
06. Domino ( Eric Bouvelle )
07. Aubade D'oiseaux ( Marcel Fontaine )
08. Pigalle ( Max Marino Et Son Accordeon )
09. Brise Napolitaine ( Marcel Fontaine )
10. La Plus Bath Des Javas ( Max Marino Et Son Accordeon )
11. Valse Des As ( Marcel Fontaine )
12. Que Reste-T-Il De Nos Amours ( AndrI Blot )
13. Indifference ( Eric Bouvelle )
14. Le Denicheur ( Marcel Fontaine )
15. La Roulotte ( Eric Bouvelle )
16. Une Partie De Petanque ( Marcel Fontaine )
17. Les Triolets ( Max Marino Et Son Accordeon )
18. Perles De Cristal ( Eric Bouvelle )
Отчёт ЕАС:
Код: выделить все
Exact Audio Copy V1.3 from 2. September 2016
Отчёт EAC об извлечении, выполненном 19. декабря 2018, 22:32
Various Artists / Simply Accordeon (CD2 - The Great Classics Of French Musette)
Дисковод: ASUS    DRW-24F1MT   Adapter: 1  ID: 0
Режим чтения                 : Достоверность
Использование точного потока : Да
Отключение кэша аудио        : Да
Использование указателей C2  : Нет
Коррекция смещения при чтении                     : 6
Способность читать области Lead-in и Lead-out     : Нет
Заполнение пропущенных сэмплов тишиной            : Да
Удаление блоков с тишиной в начале и конце        : Нет
При вычислениях CRC использовались нулевые сэмплы : Да
Интерфейс                                         : Встроенный Win32-интерфейс для Win NT/2000
Выходной формат          : Пользовательский кодировщик
Выбранный битрейт        : 128 kBit/s
Качество                 : Высокий
Добавление ID3-тега      : Нет
Утилита сжатия           : C:\Program Files (x86)\Exact Audio Copy\Flac\flac.exe
Дополнительные параметры : -V -8 -T "Date=%year%" -T "Genre=%genre%" %source%
TOC извлечённого CD
     Трек |   Старт  | Длительность | Начальный сектор | Конечный сектор
    ---------------------------------------------------------------------
       1  |  0:00.00 |    2:40.35   |           0      |      12034
       2  |  2:40.35 |    2:51.59   |       12035      |      24918
       3  |  5:32.19 |    2:31.47   |       24919      |      36290
       4  |  8:03.66 |    2:00.47   |       36291      |      45337
       5  | 10:04.38 |    2:19.68   |       45338      |      55830
       6  | 12:24.31 |    2:47.10   |       55831      |      68365
       7  | 15:11.41 |    2:45.55   |       68366      |      80795
       8  | 17:57.21 |    2:22.58   |       80796      |      91503
       9  | 20:20.04 |    2:39.27   |       91504      |     103455
      10  | 22:59.31 |    2:02.31   |      103456      |     112636
      11  | 25:01.62 |    2:05.50   |      112637      |     122061
      12  | 27:07.37 |    3:09.12   |      122062      |     136248
      13  | 30:16.49 |    2:53.40   |      136249      |     149263
      14  | 33:10.14 |    2:41.18   |      149264      |     161356
      15  | 35:51.32 |    2:50.06   |      161357      |     174112
      16  | 38:41.38 |    2:32.39   |      174113      |     185551
      17  | 41:14.02 |    1:36.47   |      185552      |     192798
      18  | 42:50.49 |    2:41.34   |      192799      |     204907
Характеристики диапазона извлечения и сообщения об ошибках
Выбранный диапазон
     Имя файла E:\Раздачи\NNMClub-eloychik ®\Various Artists - Simply Accordeon [NNM-Club.to]\CD2 - The Great Classics Of French Musette\Various Artists - Simply Accordeon (CD2 - The Great Classics Of French Musette).wav
     Пиковый уровень 97.7 %
     Скорость извлечения 6.8 X
     Качество диапазона 100.0 %
     CRC теста ED2CE119
     CRC копии ED2CE119
     Копирование... OK
Ошибок не произошло
AccurateRip: сводка
Трек  1  отсутствует в базе данных
Трек  2  отсутствует в базе данных
Трек  3  отсутствует в базе данных
Трек  4  отсутствует в базе данных
Трек  5  отсутствует в базе данных
Трек  6  отсутствует в базе данных
Трек  7  отсутствует в базе данных
Трек  8  отсутствует в базе данных
Трек  9  отсутствует в базе данных
Трек 10  отсутствует в базе данных
Трек 11  отсутствует в базе данных
Трек 12  отсутствует в базе данных
Трек 13  отсутствует в базе данных
Трек 14  отсутствует в базе данных
Трек 15  отсутствует в базе данных
Трек 16  отсутствует в базе данных
Трек 17  отсутствует в базе данных
Трек 18  отсутствует в базе данных
Ни одного трека нет в базе AccurateRip
Конец отчёта
==== Контрольная сумма отчёта 91608060CA1B11F8EDE5207610AE3120CF9568C08D3B8AC43001574DBA8E33B4 ====
CD3 - Le P'tit Bal Musette
Продолжительность - 00:46:36
Треклист:
01. Bourrasque ( Eric Bouvelle )
02. Morena De Mi Copla ( Marcel Fontaine )
03. Ca Gaze ( Max Marino Et Son Accordeon )
04. Le P'tit Bal Du Faubourg( Corinne Lesage )
05. Histoire D'un Amour ( Eric Bouvelle )
06. Brin De Musette ( Marcel Fontaine )
07. Bel Oiseau ( Max Marino )
08. E Viva Espana ( Eric Bouvelle )
09. Java Du Tour De France ( Corinne Lesage )
10. Valse A Nous Deux ( Andre Blot )
11. Beer Barrel Polka ( Max Marino )
12. Adios Muchachos ( Julio Cortazon )
13. Valse Chinoise ( Eric Bouvelle )
14. Bastringue Mon Ami ( Max Marino )
15. La Fusee ( Eric Bouvelle )
16. Mercedes De Valladolid ( Marcel Fontaine )
17. Graine De Valse ( Andre Blot )
18. Cerisier Rose Et Pommier Blanc ( Eric Bouvelle )
Отчёт ЕАС:
Код: выделить все
Exact Audio Copy V1.3 from 2. September 2016
Отчёт EAC об извлечении, выполненном 19. декабря 2018, 21:14
Various Artists / Simply Accordeon (CD3 - Le P'tit Bal Musette)
Дисковод: ASUS    DRW-24F1MT   Adapter: 1  ID: 0
Режим чтения                 : Достоверность
Использование точного потока : Да
Отключение кэша аудио        : Да
Использование указателей C2  : Нет
Коррекция смещения при чтении                     : 6
Способность читать области Lead-in и Lead-out     : Нет
Заполнение пропущенных сэмплов тишиной            : Да
Удаление блоков с тишиной в начале и конце        : Нет
При вычислениях CRC использовались нулевые сэмплы : Да
Интерфейс                                         : Встроенный Win32-интерфейс для Win NT/2000
Выходной формат          : Пользовательский кодировщик
Выбранный битрейт        : 128 kBit/s
Качество                 : Высокий
Добавление ID3-тега      : Нет
Утилита сжатия           : C:\Program Files (x86)\Exact Audio Copy\Flac\flac.exe
Дополнительные параметры : -V -8 -T "Date=%year%" -T "Genre=%genre%" %source%
TOC извлечённого CD
     Трек |   Старт  | Длительность | Начальный сектор | Конечный сектор
    ---------------------------------------------------------------------
       1  |  0:00.00 |    2:29.29   |           0      |      11203
       2  |  2:29.29 |    3:34.62   |       11204      |      27315
       3  |  6:04.16 |    1:35.27   |       27316      |      34467
       4  |  7:39.43 |    2:39.72   |       34468      |      46464
       5  | 10:19.40 |    3:02.07   |       46465      |      60121
       6  | 13:21.47 |    2:00.28   |       60122      |      69149
       7  | 15:22.00 |    2:16.07   |       69150      |      79356
       8  | 17:38.07 |    2:56.08   |       79357      |      92564
       9  | 20:34.15 |    2:29.20   |       92565      |     103759
      10  | 23:03.35 |    2:48.01   |      103760      |     116360
      11  | 25:51.36 |    2:42.28   |      116361      |     128538
      12  | 28:33.64 |    1:36.50   |      128539      |     135788
      13  | 30:10.39 |    3:25.14   |      135789      |     151177
      14  | 33:35.53 |    2:11.53   |      151178      |     161055
      15  | 35:47.31 |    2:23.15   |      161056      |     171795
      16  | 38:10.46 |    2:28.48   |      171796      |     182943
      17  | 40:39.19 |    2:34.17   |      182944      |     194510
      18  | 43:13.36 |    3:22.07   |      194511      |     209667
Характеристики диапазона извлечения и сообщения об ошибках
Выбранный диапазон
     Имя файла E:\Раздачи\NNMClub-eloychik ®\Various Artists - Simply Accordeon [NNM-Club.to]\CD3 - Le P'tit Bal Musette\Various Artists - Simply Accordeon (CD3 - Le P'tit Bal Musette).wav
     Пиковый уровень 97.7 %
     Скорость извлечения 6.9 X
     Качество диапазона 100.0 %
     CRC теста 4C556C53
     CRC копии 4C556C53
     Копирование... OK
Ошибок не произошло
AccurateRip: сводка
Трек  1  отсутствует в базе данных
Трек  2  отсутствует в базе данных
Трек  3  отсутствует в базе данных
Трек  4  отсутствует в базе данных
Трек  5  отсутствует в базе данных
Трек  6  отсутствует в базе данных
Трек  7  отсутствует в базе данных
Трек  8  отсутствует в базе данных
Трек  9  отсутствует в базе данных
Трек 10  отсутствует в базе данных
Трек 11  отсутствует в базе данных
Трек 12  отсутствует в базе данных
Трек 13  отсутствует в базе данных
Трек 14  отсутствует в базе данных
Трек 15  отсутствует в базе данных
Трек 16  отсутствует в базе данных
Трек 17  отсутствует в базе данных
Трек 18  отсутствует в базе данных
Ни одного трека нет в базе AccurateRip
Конец отчёта
==== Контрольная сумма отчёта C95A523493FF104B0A6DD2E12712E140D2BB93311C00A578EE6723DBB94A6E90 ====
CD4 - Great Latin Accordion
Продолжительность - 00:53:14
Треклист:
01. El Gato Montes ( Eric Bouvelle )
02. Le Plus Beau Tango Du Monde ( Julio Cortazon )
03. Bucaro ( Jose Caldeiro )
04. Gallito ( Andre Blot )
05. El Relicario ( Eric Bouvelle )
06. Gardens Of Andalucia ( Julio Cortazon )
07. Espana Cani ( Max Marino )
08. El Sueno De Mi Juventud ( Julio Cortazon )
09. Coplas ( Jose Caldeiro )
10. Maria Isabel ( Max Marino )
11. El Choclo Sabroso ( Ramon Vargas )
12. Sabor A Mi ( Eric Bouvelle )
13. Eso Es El Amor ( Andre Blot )
14. Comedia De Amor ( Armando Gomez )
15. Cavaquinho ( Eric Bouvelle )
16. Maximatos ( Andre Blot )
17. Perfidia ( Eric Bouvelle )
18. Tico Tico ( Eric Bouvelle )
Отчёт ЕАС:
Код: выделить все
Exact Audio Copy V1.3 from 2. September 2016
Отчёт EAC об извлечении, выполненном 19. декабря 2018, 21:51
Various Artists / Simply Accordeon (CD4 - Great Latin Accordion)
Дисковод: ASUS    DRW-24F1MT   Adapter: 1  ID: 0
Режим чтения                 : Достоверность
Использование точного потока : Да
Отключение кэша аудио        : Да
Использование указателей C2  : Нет
Коррекция смещения при чтении                     : 6
Способность читать области Lead-in и Lead-out     : Нет
Заполнение пропущенных сэмплов тишиной            : Да
Удаление блоков с тишиной в начале и конце        : Нет
При вычислениях CRC использовались нулевые сэмплы : Да
Интерфейс                                         : Встроенный Win32-интерфейс для Win NT/2000
Выходной формат          : Пользовательский кодировщик
Выбранный битрейт        : 128 kBit/s
Качество                 : Высокий
Добавление ID3-тега      : Нет
Утилита сжатия           : C:\Program Files (x86)\Exact Audio Copy\Flac\flac.exe
Дополнительные параметры : -V -8 -T "Date=%year%" -T "Genre=%genre%" %source%
TOC извлечённого CD
     Трек |   Старт  | Длительность | Начальный сектор | Конечный сектор
    ---------------------------------------------------------------------
       1  |  0:00.00 |    3:02.56   |           0      |      13705
       2  |  3:02.56 |    2:48.43   |       13706      |      26348
       3  |  5:51.24 |    3:31.25   |       26349      |      42198
       4  |  9:22.49 |    2:43.66   |       42199      |      54489
       5  | 12:06.40 |    3:07.32   |       54490      |      68546
       6  | 15:13.72 |    2:27.26   |       68547      |      79597
       7  | 17:41.23 |    3:55.68   |       79598      |      97290
       8  | 21:37.16 |    3:05.17   |       97291      |     111182
       9  | 24:42.33 |    2:46.72   |      111183      |     123704
      10  | 27:29.30 |    1:45.13   |      123705      |     131592
      11  | 29:14.43 |    1:49.44   |      131593      |     139811
      12  | 31:04.12 |    3:37.60   |      139812      |     156146
      13  | 34:41.72 |    2:59.09   |      156147      |     169580
      14  | 37:41.06 |    3:47.16   |      169581      |     186621
      15  | 41:28.22 |    2:21.47   |      186622      |     197243
      16  | 43:49.69 |    3:22.65   |      197244      |     212458
      17  | 47:12.59 |    3:05.29   |      212459      |     226362
      18  | 50:18.13 |    2:55.58   |      226363      |     239545
Характеристики диапазона извлечения и сообщения об ошибках
Выбранный диапазон
     Имя файла E:\Раздачи\NNMClub-eloychik ®\Various Artists - Simply Accordeon [NNM-Club.to]\CD4 - Great Latin Accordion\Various Artists - Simply Accordeon (CD4 - Great Latin Accordion).wav
     Пиковый уровень 97.7 %
     Скорость извлечения 7.1 X
     Качество диапазона 100.0 %
     CRC теста 9845A2E7
     CRC копии 9845A2E7
     Копирование... OK
Ошибок не произошло
AccurateRip: сводка
Трек  1  отсутствует в базе данных
Трек  2  отсутствует в базе данных
Трек  3  отсутствует в базе данных
Трек  4  отсутствует в базе данных
Трек  5  отсутствует в базе данных
Трек  6  отсутствует в базе данных
Трек  7  отсутствует в базе данных
Трек  8  отсутствует в базе данных
Трек  9  отсутствует в базе данных
Трек 10  отсутствует в базе данных
Трек 11  отсутствует в базе данных
Трек 12  отсутствует в базе данных
Трек 13  отсутствует в базе данных
Трек 14  отсутствует в базе данных
Трек 15  отсутствует в базе данных
Трек 16  отсутствует в базе данных
Трек 17  отсутствует в базе данных
Трек 18  отсутствует в базе данных
Ни одного трека нет в базе AccurateRip
Конец отчёта
==== Контрольная сумма отчёта FAB2AC2A3C64CB7FC15B18E11CF2746671A4354A6FF209D104E3D50F4926FB60 ====
-

Поглощение/вытеснение
Только с согласия релизера

Pashketan
[Профиль] [ЛС]
Показать сообщения:    
Ответить на тему

Текущее время: 17-Янв 22:57

Часовой пояс: UTC + 3



Вы не можете начинать темы
Вы не можете отвечать на сообщения
Вы не можете редактировать свои сообщения
Вы не можете удалять свои сообщения
Вы не можете голосовать в опросах
Вы не можете прикреплять файлы к сообщениям
Вы не можете скачивать файлы