Сегодня идет свободное скачивание без начисления Download

Volbeat - Let's Boogie Live From Telia Parken (2018) BDRip [H.264/720р]

Ответить на тему
 
Автор Сообщение

Bot ®

Стаж: 5 месяцев 19 дней

Сообщений: 3

Создавать темы 11-Янв-2019 09:32

[Цитировать]

Volbeat - Let's Boogie Live From Telia Parken (2018) BDRip [H.264/720р] - Производство: Denmark
Жанр: Heavy Metal, Hard Rock
Год выпуска: 2018
Исполнители: Фил Льюис, Джиззи Перл, Трэйси Ганз, Джереми Ганз, Дони Грэй, Скотт Гриффин
Описание:
Альбом состоит из живого выступления, записанного 26 августа 2017 года в Копенгагене на площадке Telia Parken. Концерт был распродан, установив рекорд самого большого шоу отечественного артиста в Дании, с участием более 48250 человек.
Продолжительность: 02:20:16
Качество видео: BDRip 720p
Субтитры: отсутствуют
Видео: AVC/H.264, 1280x720 (16:9), 29.970 fps, ~6900 Kbps
Аудио 1: DTS, 6 ch, 48.0 KHz, 1509 Kbps
Аудио 2: FLAC, 2 ch, 48.0 KHz, 1752 Kbps
Треклист:
01. The Devil's Bleeding Crown
02. Heaven Nor Hell
03. Radio Girl
04. Lola Montez
05. Let It Burn
06. Doc Holiday
07. Sad Man's Tongue
08. 16 Dollars
09. 7 Shots
10. Fallen
11. Slaytan
12. Dead but Rising
13. Goodbye Forever
14. Maybellene I Hofteholder
15. The Everlasting
16. For Evigt
17. Evelyn
18. Lonesome Rider
19. Seal the Deal
20. The Garden's Tale
21. Guitar Gangsters and Cadillac Blood
22. Enter Sandman (Metallica cover)
23. A Warrior's Call
24. Black Rose
25. Pool of Booze, Booze, Booza
26. Still Counting
h.264 log
---[Information] [17.12.2018 16:11:51] y4m [info]: 1280x720p 1:1 @ 30000/1001 fps (cfr)
---[Information] [17.12.2018 16:11:51] x264 [info]: using SAR=1/1
---[Information] [17.12.2018 16:11:51] x264 [info]: using cpu capabilities: MMX2 SSE2Fast SSSE3 SSE4.2 AVX
---[Information] [17.12.2018 16:11:51] x264 [info]: profile High, level 4.1, 4:2:0, 8-bit
---[Information] [18.12.2018 11:13:48] x264 [info]: frame I:2148 Avg QP:18.35 size:121696
---[Information] [18.12.2018 11:13:48] x264 [info]: frame P:77901 Avg QP:21.76 size: 42801
---[Information] [18.12.2018 11:13:48] x264 [info]: frame B:172179 Avg QP:23.59 size: 21256
Mediainfo:
Формат                                   : Matroska
Версия формата : Version 2
Размер файла : 9,96 Гбайт
Продолжительность : 2 ч. 20 м.
Режим общего битрейта : Переменный
Общий поток : 10,2 Мбит/сек
Название фильма : Volbeat - Let´s Boogie: Live From Telia Parken.BDRip720p
Дата кодирования : UTC 2018-12-18 11:32:31
Программа кодирования : mkvmerge v29.0.0 ('Like It Or Not') 64-bit
Библиотека кодирования : libebml v1.3.6 + libmatroska v1.4.9
Видео
Идентификатор : 1
Формат : AVC
Формат/Информация : Advanced Video Codec
Профиль формата : High@L4.1
Настройки формата : CABAC / 9 Ref Frames
Параметр CABAC формата : Да
Параметр RefFrames формата : 9 кадров
Идентификатор кодека : V_MPEG4/ISO/AVC
Продолжительность : 2 ч. 20 м.
Битрейт : 6900 Кбит/сек
Ширина : 1280 пикселей
Высота : 720 пикселей
Соотношение сторон : 16:9
Режим частоты кадров : Постоянный
Частота кадров : 29,970 (30000/1001) кадров/сек
Цветовое пространство : YUV
Субдискретизация насыщенности : 4:2:0
Битовая глубина : 8 бит
Тип развёртки : Прогрессивная
Бит/(Пиксели*Кадры) : 0.250
Размер потока : 6,76 Гбайт (68%)
Заголовок : anbelk27
Библиотека кодирования : x264 core 157 r2935 545de2f
Настройки программы : cabac=1 / ref=9 / deblock=1:-2:-2 / analyse=0x3:0x133 / me=umh / subme=11 / psy=1 / psy_rd=1.13:0.05 / mixed_ref=1 / me_range=32 / chroma_me=1 / trellis=2 / 8x8dct=1 / cqm=0 / deadzone=21,11 / fast_pskip=1 / chroma_qp_offset=-3 / threads=6 / lookahead_threads=1 / sliced_threads=0 / nr=0 / decimate=1 / interlaced=0 / bluray_compat=0 / constrained_intra=0 / bframes=9 / b_pyramid=2 / b_adapt=2 / b_bias=0 / direct=3 / weightb=1 / open_gop=0 / weightp=2 / keyint=300 / keyint_min=29 / scenecut=50 / intra_refresh=0 / rc_lookahead=120 / rc=2pass / mbtree=1 / bitrate=6900 / ratetol=1.0 / qcomp=0.60 / qpmin=0 / qpmax=69 / qpstep=4 / cplxblur=20.0 / qblur=0.5 / vbv_maxrate=50000 / vbv_bufsize=62500 / nal_hrd=none / filler=0 / ip_ratio=1.40 / aq=1:1.00
Default : Да
Forced : Нет
Аудио #1
Идентификатор : 2
Формат : DTS
Формат/Информация : Digital Theater Systems
Идентификатор кодека : A_DTS
Продолжительность : 2 ч. 20 м.
Вид битрейта : Постоянный
Битрейт : 1509 Кбит/сек
Каналы : 6 каналов
Channel layout : C L R Ls Rs LFE
Частота : 48,0 КГц
Частота кадров : 93,750 кадра/сек (512 SPF)
Битовая глубина : 24 бит
Метод сжатия : С потерями
Размер потока : 1,48 Гбайт (15%)
Заголовок : DTS 5.1 @ 24 bit
Default : Да
Forced : Нет
Аудио #2
Идентификатор : 3
Формат : FLAC
Формат/Информация : Free Lossless Audio Codec
Идентификатор кодека : A_FLAC
Продолжительность : 2 ч. 20 м.
Вид битрейта : Переменный
Битрейт : 1752 Кбит/сек
Каналы : 2 канала
Channel layout : L R
Частота : 48,0 КГц
Частота кадров : 11,719 кадров/сек (4096 SPF)
Битовая глубина : 24 бит
Метод сжатия : Без потерь
Размер потока : 1,72 Гбайт (17%)
Заголовок : FLAC 2.0 @ 24 bit
Библиотека кодирования : libFLAC 1.2.1 (UTC 2007-09-17)
Default : Нет
Forced : Нет
Меню
00:00:00.000 : en: 01.The Devil’s Bleeding Crown
00:05:59.726 : en: 02. Heaven Nor Hell
00:09:25.298 : en: 03. Radio Girl
00:14:51.824 : en: 04. Lola Montez
00:20:19.818 : en: 05. Let It Burn (feat. Mia Maja)
00:24:10.248 : en: 06. Doc Holliday
00:31:42.066 : en: 07. Sad Man’s Tongue
00:36:08.666 : en: 08. 16 Dollars
00:40:22.553 : en: 09. 7 Shots (feat. Mille Petrozza und Rod Sinclair)
00:45:38.368 : en: 10. Fallen
00:53:47.624 : en: 11. Slaytan
00:55:23.653 : en: 12. Dead But Rising
00:59:06.542 : en: 13. Goodbye Forever
01:04:19.655 : en: 14. Maybellene I Hofteholder
01:08:42.651 : en: 15. The Everlasting
01:15:33.061 : en: 16. For Evigt (feat. Johan Olsen, Mia Maja und Rod Sinclair)
01:20:57.652 : en: 17. Evelyn (feat. Mark „Barney“ Greenway)
01:25:23.518 : en: 18. Lonesome Rider
01:29:56.657 : en: 20. The Garden’s Tale (feat. Johan Olsen)
01:34:28.329 : en: 20. The Garden’s Tale (feat. Johan Olsen)
01:43:23.497 : en: 21. Guitar Gangsters and Cadillac Blood (feat. Lars Ulrich)
01:47:18.999 : en: 22. Enter Sandman (feat. Lars Ulrich)
01:51:16.536 : en: 23. A Warrior’s Call (feat. Mikkel Kessler)
01:55:48.474 : en: 24. Black Rose (feat. Danko Jones)
02:01:22.308 : en: 25. Pool Of Booze, Booze, Booza
02:08:01.240 : en: 26. Still Counting
02:16:59.377 : en: Credits
Скриншоты:
Все релизы "Volbeat - Let's Boogie Live From Telia Parken (2018)" в КлубеВремя раздачи: 24/7 (до появления первых 3-5 скачавших)
[Профиль] [ЛС]
Показать сообщения:    
Ответить на тему

Текущее время: 25-Мар 11:27

Часовой пояс: UTC + 3



Вы не можете начинать темы
Вы не можете отвечать на сообщения
Вы не можете редактировать свои сообщения
Вы не можете удалять свои сообщения
Вы не можете голосовать в опросах
Вы не можете прикреплять файлы к сообщениям
Вы не можете скачивать файлы