Сегодня идет свободное скачивание без начисления Download

(Bossa Nova/Latin Jazz) VA - Saudade De Tom & Vinicius (A Tribute To Tom Jobim & Vinicius De Moraes) - 2003, FLAC (image+.cue), lossless

Ответить на тему
 
Автор Сообщение

Bot ®

Стаж: 4 года

Сообщений: 10

Создавать темы 11-Янв-2019 09:47

[Цитировать]

Various Artists - Saudade De Tom & Vinícius (A Tribute To Tom Jobim & Vinícius De Moraes)
Жанр: Bossa Nova/Latin Jazz
Год выпуска диска: 2003
Производитель диска: CID Digital Laser (Sonopress-Rimo) - 00902-7 - Brazil
Аудио кодек: FLAC
Тип рипа: image+.cue
Битрейт аудио: lossless
Продолжительность: 48:47
Трэклист:
1. Eu Sei que Vou Te Amar (Tom Jobim)
2. Chega de Saudade (Bia)
3. Água de Beber (Wanda Sá - Célia Vaz)
4. Olha Maria (Garganta Profunda)
5. Canção em Modo Menor (Nana Caymmi)
6. Garota de Ipanema (Fogueira Três)
7. Derradeira Primavera (Quarteto em Cy - Gilson Peranzzetta)
8. Ela é Carioca (Fogueira Três)
9. Modinha (Garganta Profunda)
10. Medo de Amar ( Vire Essa Folha do Livro ) (Nana Caymmi)
11. Frevo ( Frevo de Orfeo ) (Wanda Sá - Célia Vaz)
12. Insensatez (Rio & Jazz Orchestra)
13. A Felicidade / Garota de Ipanema / Chega de Saudade (Quarteto em Cy - Célia Vaz)
14. O Morro Não Tem Vez (Rio & Jazz Orchestra)
15. Soneto do Amor Total (Quarteto em Cy - Vinicius de Moraes)
Info
Neste álbum, grandes artistas interpretam clássicos de Tom Jobim e Vinicius de Moraes. São excelente interpretações, em um clima alegre. Wanda Sá & Célia Vaz, Nana Caymmi e Tom Jobim, entre outros, estão presentes para que você mate a saudade de dois dos maiores gênios musicais do nosso tempo.
EAC Log
Exact Audio Copy V0.99 prebeta 5 from 4. May 2009
EAC extraction logfile from 27. September 2009, 20:23
Vários / Saudade De Tom & Vinícius
Used drive : HL-DT-STDVDRAM GH20NS15 Adapter: 0 ID: 0
Read mode : Secure
Utilize accurate stream : Yes
Defeat audio cache : Yes
Make use of C2 pointers : No
Read offset correction : 667
Overread into Lead-In and Lead-Out : No
Fill up missing offset samples with silence : Yes
Delete leading and trailing silent blocks : No
Null samples used in CRC calculations : Yes
Used interface : Installed external ASPI interface
Used output format : User Defined Encoder
Selected bitrate : 1024 kBit/s
Quality : High
Add ID3 tag : No
Command line compressor : C:\Program Files\Exact Audio Copy\Flac\flac.exe
Additional command line options : -8 -A tukey(0.25) -A gauss(0.1875) -b 4096 -V -T "artist=%a" -T "title=%t" -T "album=%g" -T "date=%y" -T "tracknumber=%n" -T "genre=%m" %s --sector-align
TOC of the extracted CD
Track | Start | Length | Start sector | End sector
---------------------------------------------------------
1 | 0:00.00 | 2:37.52 | 0 | 11826
2 | 2:37.52 | 3:55.28 | 11827 | 29479
3 | 6:33.05 | 3:10.40 | 29480 | 43769
4 | 9:43.45 | 4:01.17 | 43770 | 61861
5 | 13:44.62 | 2:15.08 | 61862 | 71994
6 | 15:59.70 | 3:09.35 | 71995 | 86204
7 | 19:09.30 | 2:45.24 | 86205 | 98603
8 | 21:54.54 | 3:09.41 | 98604 | 112819
9 | 25:04.20 | 1:52.62 | 112820 | 121281
10 | 26:57.07 | 3:49.58 | 121282 | 138514
11 | 30:46.65 | 3:08.35 | 138515 | 152649
12 | 33:55.25 | 5:27.65 | 152650 | 177239
13 | 39:23.15 | 3:28.60 | 177240 | 192899
14 | 42:52.00 | 4:01.65 | 192900 | 211039
15 | 46:53.65 | 1:53.27 | 211040 | 219541
Range status and errors
Selected range
Filename D:\Torrents.ru 3\Saudade De Tom & Vinícius\VA - Saudade De Tom & Vinícius (A Tribute To Tom Jobim & Vinícius De Moraes)\VA - Saudade De Tom & Vinícius (A Tribute To Tom Jobim & Vinícius De Moraes).wav
Peak level 97.7 %
Range quality 99.9 %
Test CRC 99D0009E
Copy CRC 99D0009E
Copy OK
No errors occurred
AccurateRip summary
Track 1 not present in database
Track 2 not present in database
Track 3 not present in database
Track 4 not present in database
Track 5 not present in database
Track 6 not present in database
Track 7 not present in database
Track 8 not present in database
Track 9 not present in database
Track 10 not present in database
Track 11 not present in database
Track 12 not present in database
Track 13 not present in database
Track 14 not present in database
Track 15 not present in database
None of the tracks are present in the AccurateRip database
End of status report
Audiochecker
AUDIOCHECKER v2.0 beta (build 457) - by Dester - opdester@freemail.hu
~~~~~~~~~~~~~~~~~~~~~~~~~~~~~~~~~~
-=== DO NOT EDIT THIS FILE! ===-
Path: ...\VA - Saudade De Tom & Vinícius (A Tribute To Tom Jobim & Vinícius De Moraes)
1 -=- VA - Saudade De Tom & Vinícius (A Tribute To Tom Jobim & Vinícius De Moraes).flac -=- CDDA (100%)
5530900
[Профиль] [ЛС]
Показать сообщения:    
Ответить на тему

Текущее время: 17-Янв 23:18

Часовой пояс: UTC + 3



Вы не можете начинать темы
Вы не можете отвечать на сообщения
Вы не можете редактировать свои сообщения
Вы не можете удалять свои сообщения
Вы не можете голосовать в опросах
Вы не можете прикреплять файлы к сообщениям
Вы не можете скачивать файлы