Сегодня идет свободное скачивание без начисления Download

VA - Valse/Tango 1, 2, 3... Musette (1997) Gold, 2CD Box Set [FLAC|Lossless|image + .cue]<Accordion, Instrumental>

Ответить на тему
 
Автор Сообщение

Bot ®

Стаж: 4 года 11 месяцев

Сообщений: 8

Создавать темы 11-Янв-2019 15:47

[Цитировать]

VA - Valse/Tango 1, 2, 3... Musette (1997) Gold, 2CD Box Set - Год: 1997
Жанр: Accordion, Instrumental
Издание: Retro R2CD • 40-37
Источник (релизер): eloychik ®
Продолжительность: 01:46:10
Кодек: FLAC
Битрейт: Lossless
Тип рипа: image + .cue
CD1 - Valse
Продолжительность - 00:54:01
Треклист:
01. Reine De Musette ( Dede La Bretelle )
02. Valse Des As ( Dede La Bretelle )
03. Domino ( Dede La Bretelle )
04. La Grande Valse ( Maurice Larcange )
05. Traditionnel Musette ( Maurice Larcange )
06. Marie Couche Toi La ( Maurice Larcange )
07. Zina ( Louis Ferrari )
08. Alma, Corazon Y Vida ( Louis Ferrari )
09. Alegria ( Louis Ferrari )
10. Cielito Lindo ( Louis Ferrari )
11. Sous Les Ponts De Paris ( Bernard Marly )
12. Rendez-Vouz A Paname ( Bernard Marly )
13. Du Musette Pour Deux ( Pierre Peribois )
14. Midinette ( Emile Carrara )
15. Missoulette ( Emile Carrara )
16. Les Pepees De Paris ( Emile Carrara )
17. La Chiapaneca ( Emile Carrara )
18. Mitraillette ( Luis Garzon )
19. L'accordeon Est Partout ( Bernard Hembert )
20. C'est Ca L'accordeon ( Christian Peschel )
Отчёт ЕАС:
Код: выделить все
Exact Audio Copy V1.3 from 2. September 2016
Отчёт EAC об извлечении, выполненном 19. декабря 2018, 20:10
Various Artists / Valse/Tango 1, 2, 3... Musette (CD1 - Valse)
Дисковод: ASUS    DRW-24F1MT   Adapter: 1  ID: 0
Режим чтения                 : Достоверность
Использование точного потока : Да
Отключение кэша аудио        : Да
Использование указателей C2  : Нет
Коррекция смещения при чтении                     : 6
Способность читать области Lead-in и Lead-out     : Нет
Заполнение пропущенных сэмплов тишиной            : Да
Удаление блоков с тишиной в начале и конце        : Нет
При вычислениях CRC использовались нулевые сэмплы : Да
Интерфейс                                         : Встроенный Win32-интерфейс для Win NT/2000
Выходной формат          : Пользовательский кодировщик
Выбранный битрейт        : 128 kBit/s
Качество                 : Высокий
Добавление ID3-тега      : Нет
Утилита сжатия           : C:\Program Files (x86)\Exact Audio Copy\Flac\flac.exe
Дополнительные параметры : -V -8 -T "Date=%year%" -T "Genre=%genre%" %source%
TOC извлечённого CD
     Трек |   Старт  | Длительность | Начальный сектор | Конечный сектор
    ---------------------------------------------------------------------
       1  |  0:00.00 |    2:23.65   |           0      |      10789
       2  |  2:23.65 |    2:14.27   |       10790      |      20866
       3  |  4:38.17 |    2:33.00   |       20867      |      32341
       4  |  7:11.17 |    2:59.08   |       32342      |      45774
       5  | 10:10.25 |    2:23.55   |       45775      |      56554
       6  | 12:34.05 |    2:44.60   |       56555      |      68914
       7  | 15:18.65 |    3:10.72   |       68915      |      83236
       8  | 18:29.62 |    2:18.08   |       83237      |      93594
       9  | 20:47.70 |    2:38.32   |       93595      |     105476
      10  | 23:26.27 |    2:23.50   |      105477      |     116251
      11  | 25:50.02 |    2:20.73   |      116252      |     126824
      12  | 28:11.00 |    2:10.57   |      126825      |     136631
      13  | 30:21.57 |    3:53.23   |      136632      |     154129
      14  | 34:15.05 |    2:41.29   |      154130      |     166233
      15  | 36:56.34 |    2:57.16   |      166234      |     179524
      16  | 39:53.50 |    3:04.52   |      179525      |     193376
      17  | 42:58.27 |    2:54.10   |      193377      |     206436
      18  | 45:52.37 |    2:46.55   |      206437      |     218941
      19  | 48:39.17 |    3:05.70   |      218942      |     232886
      20  | 51:45.12 |    2:16.05   |      232887      |     243091
Характеристики диапазона извлечения и сообщения об ошибках
Выбранный диапазон
     Имя файла E:\Раздачи\NNMClub-eloychik ®\Various Artists -  Valse-Tango 1, 2, 3... Musette[NNM-Club.to]\CD1 - Valse\Various Artists - Valse,Tango 1, 2, 3... Musette (CD1 - Valse).wav
     Пиковый уровень 99.9 %
     Скорость извлечения 6.9 X
     Качество диапазона 100.0 %
     CRC теста A5147E50
     CRC копии A5147E50
     Копирование... OK
Ошибок не произошло
AccurateRip: сводка
Трек  1  : извлечено точно (доверие 6)  [8E43B099]  (AR v2)
Трек  2  : извлечено точно (доверие 5)  [71ACD8A6]  (AR v2)
Трек  3  : извлечено точно (доверие 6)  [B61BD9F4]  (AR v2)
Трек  4  : извлечено точно (доверие 5)  [9903967F]  (AR v2)
Трек  5  : извлечено точно (доверие 6)  [B1DC4C1D]  (AR v2)
Трек  6  : извлечено точно (доверие 5)  [7D323AC6]  (AR v2)
Трек  7  : извлечено точно (доверие 5)  [40438FE6]  (AR v2)
Трек  8  : извлечено точно (доверие 5)  [0BB0EACA]  (AR v2)
Трек  9  : извлечено точно (доверие 5)  [11280E8C]  (AR v2)
Трек 10  : извлечено точно (доверие 5)  [15CCF3B2]  (AR v2)
Трек 11  : извлечено точно (доверие 6)  [2BFEFE70]  (AR v2)
Трек 12  : извлечено точно (доверие 5)  [4156EFFA]  (AR v2)
Трек 13  : извлечено точно (доверие 6)  [2678A609]  (AR v2)
Трек 14  : извлечено точно (доверие 5)  [C42282F9]  (AR v2)
Трек 15  : извлечено точно (доверие 5)  [F7410B45]  (AR v2)
Трек 16  : извлечено точно (доверие 5)  [87AC99ED]  (AR v2)
Трек 17  : извлечено точно (доверие 5)  [5D8EC1F4]  (AR v2)
Трек 18  : извлечено точно (доверие 5)  [A7FD61F9]  (AR v2)
Трек 19  : извлечено точно (доверие 6)  [5916D9A8]  (AR v2)
Трек 20  : извлечено точно (доверие 4)  [D2F2F117]  (AR v2)
Все треки извлечены точно
Конец отчёта
==== Контрольная сумма отчёта 94B2B982F92E16E58EEA6B45935C21A7972508E4D62D452E37DF7D6366B16FF6 ====
CD2 - Tango
Продолжительность - 00:52:09
Треклист:
01. Adios Muchachos ( Louis Ferrari )
02. Suave Milonga ( Louis Ferrari )
03. Viajes ( Louis Camblor )
04. La Vuelta Del Tango ( Louis Camblor )
05. Mi Tierra Azul ( Louis Camblor )
06. El Ctimo Cafe ( Louis Ferrari )
07. Luisito ( Louis Ferrari )
08. Le Tango Des Souvenirs ( Maurice Larcange )
09. Une Nuit Loin De Toi ( Achille Pellegrini )
10. Le Tango Du Robot ( Achille Pellegrini )
11. Esperame ( Achille Pellegrini )
12. Triste Tango ( Achille Pellegrini )
13. J'ai Quitte Les Pyrenees ( Louis Camblor )
14. Otono En Biarritz ( Louis Camblor )
15. Tango De La Nuit ( Christian Peschel )
16. El Choclo Tango ( Andre Trichot )
17. Tango Incognito ( Jacques Ferchit )
18. Piazzolita ( Rene Pesenti )
19. Paisaje Tanguero ( Dede La Bretelle )
20. Noche De Tangos ( Dede La Bretelle )
Отчёт ЕАС:
Код: выделить все
Exact Audio Copy V1.3 from 2. September 2016
Отчёт EAC об извлечении, выполненном 19. декабря 2018, 19:15
Various Artists / Valse/Tango 1, 2, 3... Musette (CD2 - Tango)
Дисковод: ASUS    DRW-24F1MT   Adapter: 1  ID: 0
Режим чтения                 : Достоверность
Использование точного потока : Да
Отключение кэша аудио        : Да
Использование указателей C2  : Нет
Коррекция смещения при чтении                     : 6
Способность читать области Lead-in и Lead-out     : Нет
Заполнение пропущенных сэмплов тишиной            : Да
Удаление блоков с тишиной в начале и конце        : Нет
При вычислениях CRC использовались нулевые сэмплы : Да
Интерфейс                                         : Встроенный Win32-интерфейс для Win NT/2000
Выходной формат          : Пользовательский кодировщик
Выбранный битрейт        : 128 kBit/s
Качество                 : Высокий
Добавление ID3-тега      : Нет
Утилита сжатия           : C:\Program Files (x86)\Exact Audio Copy\Flac\flac.exe
Дополнительные параметры : -V -8 -T "Date=%year%" -T "Genre=%genre%" %source%
TOC извлечённого CD
     Трек |   Старт  | Длительность | Начальный сектор | Конечный сектор
    ---------------------------------------------------------------------
       1  |  0:00.00 |    2:45.30   |           0      |      12404
       2  |  2:45.30 |    2:41.30   |       12405      |      24509
       3  |  5:26.60 |    2:11.35   |       24510      |      34369
       4  |  7:38.20 |    1:41.02   |       34370      |      41946
       5  |  9:19.22 |    2:02.50   |       41947      |      51146
       6  | 11:21.72 |    2:27.55   |       51147      |      62226
       7  | 13:49.52 |    2:41.20   |       62227      |      74321
       8  | 16:30.72 |    2:34.08   |       74322      |      85879
       9  | 19:05.05 |    1:31.49   |       85880      |      92753
      10  | 20:36.54 |    2:35.11   |       92754      |     104389
      11  | 23:11.65 |    2:34.02   |      104390      |     115941
      12  | 25:45.67 |    2:31.50   |      115942      |     127316
      13  | 28:17.42 |    2:37.55   |      127317      |     139146
      14  | 30:55.22 |    2:44.18   |      139147      |     151464
      15  | 33:39.40 |    4:59.35   |      151465      |     173924
      16  | 38:39.00 |    3:07.50   |      173925      |     187999
      17  | 41:46.50 |    2:08.07   |      188000      |     197606
      18  | 43:54.57 |    2:38.00   |      197607      |     209456
      19  | 46:32.57 |    2:57.43   |      209457      |     222774
      20  | 49:30.25 |    2:38.17   |      222775      |     234641
Характеристики диапазона извлечения и сообщения об ошибках
Выбранный диапазон
     Имя файла E:\Раздачи\NNMClub-eloychik ®\Various Artists -  Valse-Tango 1, 2, 3... Musette[NNM-Club.to]\CD2 - Tango\Various Artists - Valse,Tango 1, 2, 3... Musette (CD2 - Tango).wav
     Пиковый уровень 99.9 %
     Скорость извлечения 6.9 X
     Качество диапазона 100.0 %
     CRC теста DEF12085
     CRC копии DEF12085
     Копирование... OK
Ошибок не произошло
AccurateRip: сводка
Трек  1  : извлечено точно (доверие 4)  [9902E2D9]  (AR v2)
Трек  2  : извлечено точно (доверие 4)  [3B4AD733]  (AR v2)
Трек  3  : извлечено точно (доверие 4)  [23A4564A]  (AR v2)
Трек  4  : извлечено точно (доверие 4)  [82B37125]  (AR v2)
Трек  5  : извлечено точно (доверие 4)  [04ECC6B7]  (AR v2)
Трек  6  : извлечено точно (доверие 4)  [B49EF2DA]  (AR v2)
Трек  7  : извлечено точно (доверие 4)  [3B0F4D06]  (AR v2)
Трек  8  : извлечено точно (доверие 4)  [F7F61C24]  (AR v2)
Трек  9  : извлечено точно (доверие 4)  [1D7A37D0]  (AR v2)
Трек 10  : извлечено точно (доверие 4)  [46DDF962]  (AR v2)
Трек 11  : извлечено точно (доверие 4)  [1D377331]  (AR v2)
Трек 12  : извлечено точно (доверие 4)  [087EBA2C]  (AR v2)
Трек 13  : извлечено точно (доверие 4)  [C6664C84]  (AR v2)
Трек 14  : извлечено точно (доверие 4)  [1BD8A587]  (AR v2)
Трек 15  : извлечено точно (доверие 4)  [4CF3D3A7]  (AR v2)
Трек 16  : извлечено точно (доверие 4)  [BEDDF3D0]  (AR v2)
Трек 17  : извлечено точно (доверие 4)  [471A37B6]  (AR v2)
Трек 18  : извлечено точно (доверие 4)  [3B65B1BB]  (AR v2)
Трек 19  : извлечено точно (доверие 4)  [59BAB4A5]  (AR v2)
Трек 20  : извлечено точно (доверие 4)  [97D3AB86]  (AR v2)
Все треки извлечены точно
Конец отчёта
==== Контрольная сумма отчёта 958B843B97EDB56E625B2B6DDAB290C02CFBA1CEC295B83875F9699EDE37B516 ====
-

Поглощение/вытеснение
Только с согласия релизера

Pashketan
[Профиль] [ЛС]
Показать сообщения:    
Ответить на тему

Текущее время: 17-Янв 22:12

Часовой пояс: UTC + 3



Вы не можете начинать темы
Вы не можете отвечать на сообщения
Вы не можете редактировать свои сообщения
Вы не можете удалять свои сообщения
Вы не можете голосовать в опросах
Вы не можете прикреплять файлы к сообщениям
Вы не можете скачивать файлы