Сегодня идет свободное скачивание без начисления Download

Ничего хорошего в отеле «Эль рояль» / Bad Times at the El Royale (2018) BDRip [H.264/720p] [Line, AD]

Ответить на тему
Статистика раздачи
Размер:  7,21 GB   |    Зарегистрирован:  6 дней   |    Скачан:  2 раза
Сидов:  381  [  0 KB/s  ]   Личеров:  1  [  0 KB/s  ]   Подробная статистика пиров
 
   
 
 
Автор Сообщение

Bot ®

Стаж: 4 года 5 месяцев

Сообщений: 10

Создавать темы 11-Янв-2019 15:47

[Цитировать]

Ничего хорошего в отеле «Эль рояль» / Bad Times at the El Royale (2018) BDRip [H.264/720p]- Производство: США / 20th Century Fox Film Corporation
Жанр: Триллер, драма, криминал, детектив
Режиссер: Дрю Годдард
Актеры: Джефф Бриджес, Синтиа Эриво, Дакота Джонсон, Джон Хэмм, Крис Хемсворт, Кэйли Спэни, Льюис Пуллман, Ник Офферман, Ксавье Долан, Шей Уигэм
Описание:
Семь незнакомцев, у каждого из которых есть своя тайна, встречаются в заброшенном отеле «Эль Рояль» на озере Тахо. И этой ночью у каждого будет шанс на искупление… прежде чем всё пойдет к чертям.

Возраст: 18+ (зрителям, достигшим 18 лет. запрещено для детей)
Рейтинг MPAA: R (лицам до 17 лет обязательно присутствие взрослого)
Дата мировой премьеры: 27 сентября 2018
Дата премьеры в России: 11 октября 2018
Цифровой релиз: 28 декабря 2018

Продолжительность: 02:12:06
Качество видео: BDRip
Перевод: Дублированный (чистый звук)
Субтитры: Отсутствуют
Реклама: Присутствуют вставки аудио и видео и текстовой рекламы
Видео: AVC/H.264, 1280x536, ~6703 Kbps
Аудио: AC-3, 2 ch, 448 Kbps
MediaInfo:
General
Unique ID : 181191415466317759341678267547476729444 (0x885032805E5ADB54AB948655179A9E64)
Complete name : \Bad.times.at.the.el.royale.2O18.P.BDRip.72Op_KOSHARA.mkv
Format : Matroska
Format version : Version 2
File size : 7.21 GiB
Duration : 2 h 24 min
Overall bit rate mode : Variable
Overall bit rate : 7 152 kb/s
Encoded date : UTC 2018-12-22 09:51:54
Writing application : mkvmerge v8.3.0 ('Over the Horizon') 64bit
Writing library : libebml v1.3.1 + libmatroska v1.4.2
Video
ID : 1
Format : AVC
Format/Info : Advanced Video Codec
Format profile : High@L4.1
Format settings : CABAC / 4 Ref Frames
Format settings, CABAC : Yes
Format settings, ReFrames : 4 frames
Codec ID : V_MPEG4/ISO/AVC
Duration : 2 h 24 min
Bit rate mode : Variable
Bit rate : 6 703 kb/s
Maximum bit rate : 7 500 kb/s
Width : 1 280 pixels
Height : 536 pixels
Display aspect ratio : 2.40:1
Frame rate mode : Constant
Frame rate : 23.976 (24000/1001) FPS
Standard : Component
Color space : YUV
Chroma subsampling : 4:2:0
Bit depth : 8 bits
Scan type : Progressive
Bits/(Pixel*Frame) : 0.407
Stream size : 6.76 GiB (94%)
Default : Yes
Forced : No
Color range : Limited
Color primaries : BT.709
Transfer characteristics : BT.709
Matrix coefficients : BT.709
Audio
ID : 2
Format : AC-3
Format/Info : Audio Coding 3
Codec ID : A_AC3
Duration : 2 h 24 min
Bit rate mode : Constant
Bit rate : 448 kb/s
Channel(s) : 2 channels
Channel positions : Front: L R
Sampling rate : 48.0 kHz
Frame rate : 31.250 FPS (1536 SPF)
Bit depth : 16 bits
Compression mode : Lossy
Stream size : 463 MiB (6%)
Service kind : Complete Main
Default : Yes
Forced : No
Скриншоты:
Все одноименные релизы в КлубеВремя раздачи: 24/7 (до появления первых 3-5 скачавших)
[realmt.org].t1172497.torrent 
Торрент: Зарегистрирован [ 2019-01-11 15:47 ] · E006E1D2309C228195FA4EF2053637CC0D75DBA5

Скачать .torrent

Скачать

37 KB

Статус: проверено
Скачан: 2 раз
Размер: 7,21 GB
terms.php
Последние поблагодарившие
[Профиль] [ЛС]
Быстрый ответ

Имя:

      
Для отправки сообщений необходимо включить JavaScript
Показать сообщения:    
Ответить на тему

Текущее время: 17-Янв 22:18

Часовой пояс: UTC + 3



Вы можете начинать темы
Вы можете отвечать на сообщения
Вы не можете редактировать свои сообщения
Вы не можете удалять свои сообщения
Вы не можете голосовать в опросах
Вы не можете прикреплять файлы к сообщениям
Вы можете скачивать файлы