Сегодня идет свободное скачивание без начисления Download

Биатлон. Кубок Мира 2018-2019. 3-й Этап. Нове-Место (Чехия). Женщины. Гонка преследования 10 км (22.12.2018) HDTV [H.264/1080i-LQ]

Ответить на тему
 
Автор Сообщение

Bot ®

Стаж: 3 года 4 месяца

Сообщений: 8

Создавать темы 11-Янв-2019 16:03

[Цитировать]

Биатлон. Кубок Мира 2018-2019. 3-й Этап. Нове-Место (Чехия).
Женщины. Гонка преследования 10 км (22.12.2018) HDTV [H.264/1080i-LQ]
- Телекомпания: Матч! Арена HD
Жанр: Спорт
Комментатор: Дмитрий Губерниев
Описание: 22 декабря 2018 года, суббота. 19:00 МСК
Кубок Мира по биатлону сезона 2018-2019.
Этап 3. Нове-Место (Чехия):
Женщины. Гонка преследования 10 км
Релиз от: Злобный Санчез
Продолжительность: 00:45:19
Качество видео: HDTV
Язык озвучки: Русский
Субтитры: отсутствуют
Видео: AVC/H.264, 1920x1080 (16:9), ~8938 Kbps
Аудио: MP2, 2 ch, 48 kHz, 192 Kbps
Mediainfo:
Общее
Идентификатор : 1 (0x1)
Полное имя : F:\SPORT\Биатлон\BMW IBU Biathlon World Cup 2018-2019.Nove Mesto(Czech Rep.). Stage 3\BT1819SWRLCP03SWPU.ts
Формат : MPEG-TS
Размер файла : 3,04 Гбайт
Продолжительность : 45 м. 18 с.
Режим общего битрейта : Переменный
Общий поток : 9607 Кбит/сек
Видео
Идентификатор : 324 (0x144)
Идентификатор меню : 12104 (0x2F48)
Формат : AVC
Формат/Информация : Advanced Video Codec
Профиль формата : High@L4
Настройки формата : CABAC / 4 Ref Frames
Параметр CABAC формата : Да
Параметр RefFrames формата : 4 кадра
Параметр GOP формата : M=4, N=28
Идентификатор кодека : 27
Продолжительность : 45 м. 18 с.
Битрейт : 8938 Кбит/сек
Ширина : 1920 пикселей
Высота : 1080 пикселей
Соотношение сторон : 16:9
Частота кадров : 25,000 кадров/сек
Стандарт вещания : Component
Цветовое пространство : YUV
Субдискретизация насыщенности : 4:2:0
Битовая глубина : 8 бит
Тип развёртки : Чересстрочная
Метод сохранения типа развёртки : Раздельные поля
Порядок развёртки : Верхнее поле первое
Бит/(Пиксели*Кадры) : 0.172
Размер потока : 2,83 Гбайт (93%)
Цветовой диапазон : Limited
Основные цвета : BT.709
Характеристики трансфера : BT.709
Коэффициенты матрицы : BT.709
Аудио
Идентификатор : 404 (0x194)
Идентификатор меню : 12104 (0x2F48)
Формат : MPEG Audio
Версия формата : Version 1
Профиль формата : Layer 2
Идентификатор кодека : 3
Продолжительность : 45 м. 18 с.
Вид битрейта : Постоянный
Битрейт : 192 Кбит/сек
Каналы : 2 канала
Частота : 48,0 КГц
Частота кадров : 41,667 кадра/сек (1152 SPF)
Метод сжатия : С потерями
Задержка видео : -120 мс.
Размер потока : 62,2 Мбайт (2%)
Язык : Russian
Скриншоты:
Все одноименные релизы в КлубеВремя раздачи: 24/7 (до появления первых 3-5 скачавших)
[Профиль] [ЛС]
Показать сообщения:    
Ответить на тему

Текущее время: 25-Мар 10:40

Часовой пояс: UTC + 3



Вы не можете начинать темы
Вы не можете отвечать на сообщения
Вы не можете редактировать свои сообщения
Вы не можете удалять свои сообщения
Вы не можете голосовать в опросах
Вы не можете прикреплять файлы к сообщениям
Вы не можете скачивать файлы