Сегодня идет свободное скачивание без начисления Download

Stars On 45, Long Tall Ernie and The Shakers - Звёзды дискотек (1983)/Мелодия /[FLAC 2.0 192/24|traks(Vinil-Rip)]<Диско>

Ответить на тему
 
Автор Сообщение

Bot ®

Стаж: 1 год 8 месяцев

Сообщений: 10

Создавать темы 05-Фев-2019 18:04

[Цитировать]

Stars On 45, Long Tall Ernie and The Shakers - Звёзды дискотек (1983)- Год: 1983
Жанр: Диско
Продолжительность: 00:32:13
Кодек: FLAC
Битрейт: Lossless
Тип битрейта: VBR
Трек лист:
11. Группа Stars on 45
21. Группа Stars on 45
22. Группа Stars on 45
23. Группа Long Tall Ernie and The Shakers
Дополнительная информация:
С60 18941-2, Ленинградский ЗГ
Изготовлено по лицензии фирмы CNR. Нидерланды, 1981 г.
Оцифровка собственная - два моно 192/34. Запись - Technics SL-D303, картридж AT15Sa, фонокорректор Pro-Ject Phono Box SE II, АЦП E-MU 0204, WaveLab5.
Реставрация, мастеринг - Sound Forge 10, iZotope RX2.
Отчёт Mediainfo :
Код:
Общее
Полное имя                               : D:\Раздачи\Звёзды дискотек\Stars On 45\11. Группа Stars on 45.flac
Формат                                   : FLAC
Формат/Информация                        : Free Lossless Audio Codec
Размер файла                             : 593 Мбайт
Продолжительность                        : 15 м.
Режим общего битрейта                    : Переменный
Общий поток                              : 5211 Кбит/сек
Дата записи                              : 2012-12-01
IENG                                     : Slawa Awdeew
ISFT                                     : Sound Forge Pro 10.0
Аудио
Формат                                   : FLAC
Формат/Информация                        : Free Lossless Audio Codec
Продолжительность                        : 15 м.
Вид битрейта                             : Переменный
Битрейт                                  : 5210 Кбит/сек
Каналы                                   : 2 канала
Частота                                  : 192 КГц
Битовая глубина                          : 24 бит
Размер потока                            : 593 Мбайт (100%)
Библиотека кодирования                   : libFLAC 20080709 (UTC 2008-07-09)
Общее
Полное имя                               : D:\Раздачи\Звёзды дискотек\Stars On 45\21. Группа Stars on 45.flac
Формат                                   : FLAC
Формат/Информация                        : Free Lossless Audio Codec
Размер файла                             : 295 Мбайт
Продолжительность                        : 8 м. 6 с.
Режим общего битрейта                    : Переменный
Общий поток                              : 5096 Кбит/сек
Дата записи                              : 2012-12-01
IENG                                     : Slawa Awdeew
ISFT                                     : Sound Forge Pro 10.0
Аудио
Формат                                   : FLAC
Формат/Информация                        : Free Lossless Audio Codec
Продолжительность                        : 8 м. 6 с.
Вид битрейта                             : Переменный
Битрейт                                  : 5096 Кбит/сек
Каналы                                   : 2 канала
Частота                                  : 192 КГц
Битовая глубина                          : 24 бит
Размер потока                            : 295 Мбайт (100%)
Библиотека кодирования                   : libFLAC 20080709 (UTC 2008-07-09)
Общее
Полное имя                               : D:\Раздачи\Звёзды дискотек\Stars On 45\22. Группа Stars on 45.flac
Формат                                   : FLAC
Формат/Информация                        : Free Lossless Audio Codec
Размер файла                             : 174 Мбайт
Продолжительность                        : 4 м. 35 с.
Режим общего битрейта                    : Переменный
Общий поток                              : 5315 Кбит/сек
Дата записи                              : 2012-12-01
IENG                                     : Slawa Awdeew
ISFT                                     : Sound Forge Pro 10.0
Аудио
Формат                                   : FLAC
Формат/Информация                        : Free Lossless Audio Codec
Продолжительность                        : 4 м. 35 с.
Вид битрейта                             : Переменный
Битрейт                                  : 5315 Кбит/сек
Каналы                                   : 2 канала
Частота                                  : 192 КГц
Битовая глубина                          : 24 бит
Размер потока                            : 174 Мбайт (100%)
Библиотека кодирования                   : libFLAC 20080709 (UTC 2008-07-09)
Общее
Полное имя                               : D:\Раздачи\Звёзды дискотек\Stars On 45\23. Группа Long Tall Ernie and The Shakers.flac
Формат                                   : FLAC
Формат/Информация                        : Free Lossless Audio Codec
Размер файла                             : 163 Мбайт
Продолжительность                        : 4 м. 32 с.
Режим общего битрейта                    : Переменный
Общий поток                              : 5035 Кбит/сек
Дата записи                              : 2012-12-01
IENG                                     : Slawa Awdeew
ISFT                                     : Sound Forge Pro 10.0
Аудио
Формат                                   : FLAC
Формат/Информация                        : Free Lossless Audio Codec
Продолжительность                        : 4 м. 32 с.
Вид битрейта                             : Переменный
Битрейт                                  : 5035 Кбит/сек
Каналы                                   : 2 канала
Частота                                  : 192 КГц
Битовая глубина                          : 24 бит
Размер потока                            : 163 Мбайт (100%)
Библиотека кодирования                   : libFLAC 20080709 (UTC 2008-07-09)
Время раздачи: С 18:00 до 08:00 (дргугое время-по возможности)
[Профиль] [ЛС]
Показать сообщения:    
Ответить на тему

Текущее время: 18-Фев 02:52

Часовой пояс: UTC + 3



Вы не можете начинать темы
Вы не можете отвечать на сообщения
Вы не можете редактировать свои сообщения
Вы не можете удалять свои сообщения
Вы не можете голосовать в опросах
Вы не можете прикреплять файлы к сообщениям
Вы не можете скачивать файлы