Сегодня идет свободное скачивание без начисления Download

Не спать до Рождества / No Sleep Til Christmas (2018) HDTVRip [MVO] [AD]

Ответить на тему
Статистика раздачи
Размер:  1,33 GB   |    Зарегистрирован:  6 дней   |    Скачан:  0 раз
Сидов:  31  [  0 KB/s  ]   Подробная статистика пиров
 
   
 
 
Автор Сообщение

Bot ®

Стаж: 4 года 8 месяцев

Сообщений: 8

Создавать темы 11-Фев-2019 07:04

[Цитировать]

Не спать до Рождества / No Sleep Til Christmas (2018) HDTVRip- Производство: США / Freeform, Mass Hysteria Entertainment
Жанр: Мелодрама, комедия
Режиссер: Фил Трэйл
Актеры: Одетт Эннэйбл, Дэйв Эннэйбл, Скотт Квальейру, Бриттани Бристоу, Чарльз Майкл Дэвис, Шерил Ли Ральф, Кевин Ханчард, Альфонсо МакОли, Джесс Салгейру, Кристина Юнг
Описание:
Бармен Билли и бизнеследи Лиззи знакомятся при забавных обстоятельствах. Они совершенно разные, но одно общее у них всё же есть - бессоница. Они перепробовали всё, что можно было, но ничего не помогает. Они не знали одного. Для решения этой проблемы всего то нужно было найти идеального партнёра для сна.

Дата мировой премьеры: 10 декабря 2018
Продолжительность: 01:24:17
Качество видео: HDTVRip
Перевод: Многоголосый закадровый, профессиональный (Синема УС)
Субтитры: Отсутствуют
Реклама: Присутствуют вставки текстовой рекламы
Видео: XviD, 720x400, ~1869 Kbps
Аудио: AC-3, 2 ch, 384 Kbps
MediaInfo:
Общее
Полное имя : E:\NNM\Не спать до Рождества\No Sleep Til Christmas 2018 HDTVRip.avi
Формат : AVI
Формат/Информация : Audio Video Interleave
Профиль формата : OpenDML
Размер файла : 1,33 Гбайт
Продолжительность : 1 ч. 24 м.
Общий поток : 2265 Кбит/сек
Видео
Идентификатор : 0
Формат : MPEG-4 Visual
Профиль формата : Advanced Simple@L5
Настройки формата : BVOP2 / Custom Matrix
Параметр BVOP формата : 2
Параметр QPel формата : Нет
Параметр GMC формата : Без точки перехода
Параметр матрицы формата : Выборочная
Идентификатор кодека : XVID
Идентификатор кодека/Подсказка : XviD
Продолжительность : 1 ч. 24 м.
Битрейт : 1869 Кбит/сек
Ширина : 720 пикселей
Высота : 400 пикселей
Соотношение сторон : 16:9
Частота кадров : 23,976 (24000/1001) кадра/сек
Цветовое пространство : YUV
Субдискретизация насыщенности : 4:2:0
Битовая глубина : 8 бит
Тип развёртки : Прогрессивная
Метод сжатия : С потерями
Бит/(Пиксели*Кадры) : 0.271
Размер потока : 1,10 Гбайт (82%)
Библиотека кодирования : XviD 1.2.1 (UTC 2008-12-04)
Аудио
Идентификатор : 1
Формат : AC-3
Формат/Информация : Audio Coding 3
Идентификатор кодека : 2000
Продолжительность : 1 ч. 24 м.
Вид битрейта : Постоянный
Битрейт : 384 Кбит/сек
Каналы : 2 канала
Расположение каналов : Front: L R
Частота : 48,0 КГц
Частота кадров : 31,250 кадров/сек (1536 SPF)
Битовая глубина : 16 бит
Метод сжатия : С потерями
Размер потока : 232 Мбайт (17%)
Выравнивание : Соединение по промежуткам
Продолжительность промежутка : 32 мс. (0,77 видеокадр)
ServiceKind/String : Complete Main
Скриншоты: Все одноименные релизы в КлубеВремя раздачи: 24/7 (до появления первых 3-5 скачавших)
[realmt.org].t1176096.torrent 
Торрент: Зарегистрирован [ 2019-02-11 07:04 ] · 60844B609355C99C2A4C785FB2DCF06C70BE77E2

Скачать .torrent

Скачать

14 KB

Статус: проверено
Скачан: 0 раз
Размер: 1,33 GB
terms.php
Последние поблагодарившие
[Профиль] [ЛС]
Быстрый ответ

Имя:

      
Для отправки сообщений необходимо включить JavaScript
Показать сообщения:    
Ответить на тему

Текущее время: 18-Фев 02:52

Часовой пояс: UTC + 3



Вы можете начинать темы
Вы можете отвечать на сообщения
Вы не можете редактировать свои сообщения
Вы не можете удалять свои сообщения
Вы не можете голосовать в опросах
Вы не можете прикреплять файлы к сообщениям
Вы можете скачивать файлы