Сегодня идет свободное скачивание без начисления Download

Счастливый рейс (Машина 22-12) (Владимир Немоляев) [1949, комедия, DVDRip]

Ответить на тему
 
Автор Сообщение

Bot ®

Стаж: 4 года 7 месяцев

Сообщений: 11

Создавать темы 12-Фев-2019 18:32

[Цитировать]

Счастливый рейс (Машина 22-12)
Год выпуска: 1949
Жанр: комедия
Продолжительность: 01:12:45
Режиссер: Владимир Немоляев
В ролях: Анатолий Горюнов, Евгений Леонов, Михаил Жаров, Николай Крючков, Светлана Немоляева, Татьяна Пельтцер
Описание: Веселый рассказ о двух шоферах одного предприятия - шофере-ударнике и шофере-очковтирателе. В этой лиричной музыкальной комедии свою первую роль в кино сыграл Евгений Леонов.
Семпл: http://multi-up.com/634750
Качество видео: DVDRip
Формат видео: AVI
Видео: 640x480 (1.33:1), 25 fps, XviD 1.1 beta 2 (build 39) ~1327 kbps avg, 0.17 bit/pixel
Аудио: 48 kHz, Microsoft MPEG, 2 ch, ~128.00 kbps avg
Отчет MediaInfo
Полное имя : F:\Shit\reis_mashina_22_12.avi
Формат : AVI
Формат/Информация : Audio Video Interleave
Размер файла : 698 Мбайт
Продолжительность : 1 ч. 12 м.
Общий поток : 1341 Кбит/сек
Видео
Идентификатор : 0
Формат : MPEG-4 Visual
Профиль формата : Simple@L3
Параметр BVOP формата : Нет
Параметр QPel формата : Нет
Параметр GMC формата : Без точки перехода
Параметр матрицы формата : Default (H.263)
Идентификатор кодека : XVID
Идентификатор кодека/Подсказка : XviD
Продолжительность : 1 ч. 12 м.
Битрейт : 1200 Кбит/сек
Ширина : 640 пикселей
Высота : 480 пикселей
Соотношение сторон : 4:3
Частота кадров : 25,000 кадров/сек
Цветовое пространство : YUV
Субдискретизация насыщенности : 4:2:0
Битовая глубина : 8 бит
Тип развёртки : Прогрессивная
Метод сжатия : С потерями
Бит/(Пиксели*Кадры) : 0.156
Размер потока : 625 Мбайт (89%)
Библиотека кодирования : XviD 1.1.0 Beta2 (UTC 2005-04-04)
Аудио
Идентификатор : 1
Формат : MPEG Audio
Версия формата : Version 1
Профиль формата : Layer 2
Идентификатор кодека : 50
Продолжительность : 1 ч. 12 м.
Вид битрейта : Постоянный
Битрейт : 128 Кбит/сек
Каналы : 2 канала
Частота : 48,0 КГц
Метод сжатия : С потерями
Размер потока : 66,6 Мбайт (10%)
Выравнивание : Соединение по промежуткам
Продолжительность промежутка : 24 мс. (0,60 видеокадр)
Скриншоты
[Профиль] [ЛС]
Показать сообщения:    
Ответить на тему

Текущее время: 22-Мар 05:56

Часовой пояс: UTC + 3



Вы не можете начинать темы
Вы не можете отвечать на сообщения
Вы не можете редактировать свои сообщения
Вы не можете удалять свои сообщения
Вы не можете голосовать в опросах
Вы не можете прикреплять файлы к сообщениям
Вы не можете скачивать файлы