Сегодня идет свободное скачивание без начисления Download

Принцесса Турандот (1971) DVDRip [H.264]

Ответить на тему
Статистика раздачи
Размер:  1,58 GB   |    Зарегистрирован:  21 день   |    Скачан:  0 раз
Сидов:  9  [  0 KB/s  ]   Подробная статистика пиров
 
   
 
 
Автор Сообщение

Bot ®

Стаж: 1 год 11 месяцев

Сообщений: 5

Создавать темы 01-Мар-2019 00:15

[Цитировать]

Принцесса Турандот (1971) DVDRip [H.264]- Производство: СССР. Гостелерадио СССР, Государственный Академический театр им. Е. Вахтангова
Жанр: Телеспектакль, комедия, экранизация
Режиссер: Рубен Симонов, Александр Шорин
Актеры: Василий Лановой, Юлия Борисова, Михаил Дадыко, Эрнест Зорин, Юрий Яковлев, Николай Гриценко, Михаил Ульянов, Людмила Максакова, Екатерина Райкина, Анатолий Кацынский
Описание:
«Принце́сса Турандо́т» по сказке Карло Гоцци.
Жестокая красавица китайская принцесса Турандот не желает выходить замуж. Чтобы женихи не одолевали, она придумала им невыполнимую задачу — разгадать три труднейшие загадки, а кто не угадает — того казнить. Но поток влюблённых не иссякает. Каждому прибывающему очередному жениху она загадывает свои загадки, после чего несчастного уводят на казнь. Но вот появляется ещё один влюблённый — зрители знают, что это принц Калаф, но коварной Турандот ещё предстоит это выяснить... Легендарный спектакль в 3-х действиях, 6 картинах по сказке Карло Гоцци о любви принца Калафа к принцессе Турандот. Спектакль ведут четыре маски итальянской комедии: Бригелла, Труффальдино, Тарталья и Панталоне. К. Гоцци охарактеризовал свое произведение так: «Театрально — трагическая китайская сказка». В Пекине жила жестокосердная красавица принцесса. Ее любви добивались женихи со всего мира. Но она ненавидела мужчин. И лишь отважный князь Калаф смог доказать ей, что не боится даже смерти. Он готов на все, лишь бы добиться ее любви...

Возраст: 12+ (зрителям, достигшим 12 лет)
Продолжительность: 01:09:04+01:11:22
Качество видео: DVDRip
Субтитры: отсутствуют
Видео: AVC/H.264, 720x552, ~1414 Kbps
Аудио: AC3, 2 ch, 192 kbps
Mediainfo:
Общее
Уникальный идентификатор : 207609817224809674467658054190281032146 (0x9C30324594682EBF874AF708345481D2)
Полное имя : D:\Советские фильмы\Лановой Василий Семенович\Принцесса Турандот\Принцесса Турандот 2 части\Принцесса Турандот. 1971. 1 часть.mkv
Формат : Matroska
Версия формата : Version 4 / Version 2
Размер файла : 794 Мбайт
Продолжительность : 1 ч. 9 м.
Общий поток : 1608 Кбит/сек
Название фильма : Release for Topmost
Дата кодирования : UTC 2019-01-19 06:18:24
Программа кодирования : mkvmerge v6.2.0 ('Promised Land') built on Apr 28 2013 12:22:01
Библиотека кодирования : libebml v1.3.0 + libmatroska v1.4.0
Attachment : Yes
Видео
Идентификатор : 1
Формат : AVC
Формат/Информация : Advanced Video Codec
Профиль формата : High@L4.1
Параметр CABAC формата : Да
Параметр ReFrames формата : 12 кадров
Идентификатор кодека : V_MPEG4/ISO/AVC
Продолжительность : 1 ч. 9 м.
Битрейт : 1414 Кбит/сек
Ширина : 720 пикселей
Высота : 552 пикселя
Соотношение сторон : 4:3
Режим частоты кадров : Постоянный
Частота кадров : 25,000 кадров/сек
Цветовое пространство : YUV
Субдискретизация насыщенности : 4:2:0
Битовая глубина : 8 бит
Тип развёртки : Прогрессивная
Бит/(Пиксели*Кадры) : 0.142
Размер потока : 684 Мбайт (86%)
Заголовок : Принцесса Турандот. 1971. 1 серия (Release for Topmost)
Библиотека кодирования : x264 core 146 r2538 121396c
Настройки программы : cabac=1 / ref=12 / deblock=1:-3:-3 / analyse=0x3:0x113 / me=umh / subme=11 / psy=1 / psy_rd=1.00:0.15 / mixed_ref=1 / me_range=32 / chroma_me=1 / trellis=2 / 8x8dct=1 / cqm=0 / deadzone=21,11 / fast_pskip=0 / chroma_qp_offset=-3 / threads=12 / lookahead_threads=2 / sliced_threads=0 / nr=0 / decimate=0 / interlaced=0 / bluray_compat=0 / constrained_intra=0 / bframes=9 / b_pyramid=2 / b_adapt=2 / b_bias=0 / direct=3 / weightb=1 / open_gop=0 / weightp=2 / keyint=240 / keyint_min=23 / scenecut=40 / intra_refresh=0 / rc_lookahead=40 / rc=2pass / mbtree=1 / bitrate=1414 / ratetol=1.0 / qcomp=0.60 / qpmin=0 / qpmax=69 / qpstep=4 / cplxblur=20.0 / qblur=0.5 / ip_ratio=1.40 / aq=1:0.90
Язык : Russian
Default : Да
Forced : Нет
Аудио
Идентификатор : 2
Формат : AC-3
Формат/Информация : Audio Coding 3
Расширение режима : CM (complete main)
Параметр Endianness формата : Big
Идентификатор кодека : A_AC3
Продолжительность : 1 ч. 9 м.
Вид битрейта : Постоянный
Битрейт : 192 Кбит/сек
Каналы : 2 канала
Расположение каналов : Front: L R
Частота : 48,0 КГц
Битовая глубина : 16 бит
Метод сжатия : С потерями
Задержка видео : 64 мс.
Размер потока : 94,9 Мбайт (12%)
Язык : Russian
Default : Да
Forced : Нет
Общее
Уникальный идентификатор : 236182205732981555745225384879134934156 (0xB1AF09C9C92CE35098C60058D679048C)
Полное имя : D:\Советские фильмы\Лановой Василий Семенович\Принцесса Турандот\Принцесса Турандот 2 части\Принцесса Турандот. 1971. 2 часть.mkv
Формат : Matroska
Версия формата : Version 4 / Version 2
Размер файла : 820 Мбайт
Продолжительность : 1 ч. 11 м.
Общий поток : 1607 Кбит/сек
Название фильма : Release for Topmost
Дата кодирования : UTC 2019-01-19 11:42:12
Программа кодирования : mkvmerge v6.2.0 ('Promised Land') built on Apr 28 2013 12:22:01
Библиотека кодирования : libebml v1.3.0 + libmatroska v1.4.0
Attachment : Yes
Видео
Идентификатор : 1
Формат : AVC
Формат/Информация : Advanced Video Codec
Профиль формата : High@L4.1
Параметр CABAC формата : Да
Параметр ReFrames формата : 12 кадров
Идентификатор кодека : V_MPEG4/ISO/AVC
Продолжительность : 1 ч. 11 м.
Битрейт : 1414 Кбит/сек
Ширина : 720 пикселей
Высота : 552 пикселя
Соотношение сторон : 4:3
Режим частоты кадров : Постоянный
Частота кадров : 25,000 кадров/сек
Цветовое пространство : YUV
Субдискретизация насыщенности : 4:2:0
Битовая глубина : 8 бит
Тип развёртки : Прогрессивная
Бит/(Пиксели*Кадры) : 0.142
Размер потока : 706 Мбайт (86%)
Заголовок : Принцесса Турандот. 1971. 2 серия (Release for Topmost)
Библиотека кодирования : x264 core 146 r2538 121396c
Настройки программы : cabac=1 / ref=12 / deblock=1:-3:-3 / analyse=0x3:0x113 / me=umh / subme=11 / psy=1 / psy_rd=1.00:0.15 / mixed_ref=1 / me_range=32 / chroma_me=1 / trellis=2 / 8x8dct=1 / cqm=0 / deadzone=21,11 / fast_pskip=0 / chroma_qp_offset=-3 / threads=12 / lookahead_threads=2 / sliced_threads=0 / nr=0 / decimate=0 / interlaced=0 / bluray_compat=0 / constrained_intra=0 / bframes=9 / b_pyramid=2 / b_adapt=2 / b_bias=0 / direct=3 / weightb=1 / open_gop=0 / weightp=2 / keyint=240 / keyint_min=23 / scenecut=40 / intra_refresh=0 / rc_lookahead=40 / rc=2pass / mbtree=1 / bitrate=1414 / ratetol=1.0 / qcomp=0.60 / qpmin=0 / qpmax=69 / qpstep=4 / cplxblur=20.0 / qblur=0.5 / ip_ratio=1.40 / aq=1:0.90
Язык : Russian
Default : Да
Forced : Нет
Аудио
Идентификатор : 2
Формат : AC-3
Формат/Информация : Audio Coding 3
Расширение режима : CM (complete main)
Параметр Endianness формата : Big
Идентификатор кодека : A_AC3
Продолжительность : 1 ч. 11 м.
Вид битрейта : Постоянный
Битрейт : 192 Кбит/сек
Каналы : 2 канала
Расположение каналов : Front: L R
Частота : 48,0 КГц
Битовая глубина : 16 бит
Метод сжатия : С потерями
Задержка видео : 64 мс.
Размер потока : 98,0 Мбайт (12%)
Язык : Russian
Default : Да
Forced : Нет
Скриншоты:
Дополнительные скриншоты:
Все одноименные релизы в КлубеВремя раздачи: 24/7 до 5 скачавших (до появления первых 3-5 скачавших)
[realmt.org].t1179192.torrent 
Торрент: Зарегистрирован [ 2019-03-01 00:15 ] · CFE7DF3DD4EB7612732E8BB3A8FB77882748EECD

Скачать .torrent

Скачать

17 KB

Статус: проверено
Скачан: 0 раз
Размер: 1,58 GB
terms.php
Последние поблагодарившие
Похожие темы
[Профиль] [ЛС]
Показать сообщения:    
Ответить на тему

Текущее время: 22-Мар 05:44

Часовой пояс: UTC + 3



Вы не можете начинать темы
Вы не можете отвечать на сообщения
Вы не можете редактировать свои сообщения
Вы не можете удалять свои сообщения
Вы не можете голосовать в опросах
Вы не можете прикреплять файлы к сообщениям
Вы можете скачивать файлы