Сегодня идет свободное скачивание без начисления Download

Валерий Леонтьев - Песни Раймонда Паулса (1984, 1986) 2LP Reissue [FLAC 2.0|96/24|image+.cue|Vinyl-Rip] <Pop, Soul, Disco>

Ответить на тему
 
Автор Сообщение

Bot ®

Стаж: 1 год 9 месяцев

Сообщений: 5

Создавать темы 13-Мар-2019 23:30

[Цитировать]

Валерий Леонтьев - Песни Раймонда Паулса (1984, 1986) - Автор рипа: digital2015
Жанр: Pop, Soul, Disco
Общая продолжительность: 01:13:09
Издатель (лейбл): Мелодия (USSR)
Номера по каталогу: С60 21271-72 006/С60 24623-24 004
Кодек: FLAC (image + .cue)
Формат записи: 24/96
Формат раздачи: 24/96
Реальные значения DR: DR11, DR14
Источник 1: Vinyl, LP, Album, Repress
Источник 2: Vinyl, LP, Album, Repress-Треклист:
A1 Verooka · Вероока
A2 Heart’s Eclipse · Затмение Сердца
A3 I Don't Say Good-bye To You · Я С Тобой Не Прощаюсь
A4 Years Of Wandering · Годы Странствий
A5 Tape-Recorder Of A Man · Человек-Магнитофон
B1 Singing Mime · Поющий Мим
B2 After Holiday · После Праздника
B3 Love The Pianist · Полюбите Пианиста
B4 Dialogue · Диалог
B5 Green Light · Зеленый Свет-
Technical info:
Устройство воспроизведения: Электроника ЭП 017С
Головка звукоснимателя: ГЗМ-053
Фонокоректор: самодельный на п/п
АЦП: ESI Juli@
Программа-оцифровщик: Adobe Audition
Код класса состояния винила: VG
Обработка: удаление щелчков
-
LP1 "Диалог" - 1984 (переиздание 1985 г.):
Треклист:
A1 Verooka · Вероока
A2 Heart’s Eclipse · Затмение Сердца
A3 I Don't Say Good-bye To You · Я С Тобой Не Прощаюсь
A4 Years Of Wandering · Годы Странствий
A5 Tape-Recorder Of A Man · Человек-Магнитофон
B1 Singing Mime · Поющий Мим
B2 After Holiday · После Праздника
B3 Love The Pianist · Полюбите Пианиста
B4 Dialogue · Диалог
B5 Green Light · Зеленый Свет
Продолжительность: 00:36:54
Отчёт MI:
Общее
Полное имя : D:\[NNMClub] Валерий Леонтьев - Песни Раймонда Паулса [2LP] - 1984, 1986 (flac)\01. ''Диалог'' (1984)\01. Sound\01. Сторона 1.flac
Формат : FLAC
Формат/Информация : Free Lossless Audio Codec
Размер файла : 384 Мбайт
Продолжительность : 18 м. 22 с.
Режим общего битрейта : Переменный
Общий поток : 2921 Кбит/сек
Дата записи : 2017-07-10T13:10:04+06:00
Аудио
Формат : FLAC
Формат/Информация : Free Lossless Audio Codec
Продолжительность : 18 м. 22 с.
Вид битрейта : Переменный
Битрейт : 2921 Кбит/сек
Каналы : 2 канала
Расположение каналов : Front: L R
Частота : 96,0 КГц
Битовая глубина : 24 бит
Размер потока : 384 Мбайт (100%)
Библиотека кодирования : libFLAC 1.2.1 (UTC 2007-09-17)
Общее
Полное имя : D:\[NNMClub] Валерий Леонтьев - Песни Раймонда Паулса [2LP] - 1984, 1986 (flac)\01. ''Диалог'' (1984)\01. Sound\02. Сторона 2.flac
Формат : FLAC
Формат/Информация : Free Lossless Audio Codec
Размер файла : 384 Мбайт
Продолжительность : 18 м. 30 с.
Режим общего битрейта : Переменный
Общий поток : 2902 Кбит/сек
Дата записи : 2017-07-10T13:45:12+06:00
Аудио
Формат : FLAC
Формат/Информация : Free Lossless Audio Codec
Продолжительность : 18 м. 30 с.
Вид битрейта : Переменный
Битрейт : 2902 Кбит/сек
Каналы : 2 канала
Расположение каналов : Front: L R
Частота : 96,0 КГц
Битовая глубина : 24 бит
Размер потока : 384 Мбайт (100%)
Библиотека кодирования : libFLAC 1.2.1 (UTC 2007-09-17)
Отчёт DRM (DR11):
foobar2000 1.1.3 / Dynamic Range Meter 1.1.1
log date: 2017-07-14 12:43:53
--------------------------------------------------------------------------------
Analyzed: Валерий Леонтьев / Диалог (Песни Рай монда Паулса)
--------------------------------------------------------------------------------
DR Peak RMS Duration Track
--------------------------------------------------------------------------------
DR11 -1.46 dB -15.31 dB 4:01 ?-A1 Verooka · Вероока
DR10 -3.57 dB -16.51 dB 3:39 ?-A2 Heart’s Eclipse · Затмение Сердца
DR11 -3.30 dB -16.87 dB 3:07 ?-A3 I Don't Say Good-bye To You · Я С Тобой Не Прощаюсь
DR11 -3.50 dB -16.46 dB 4:10 ?-A4 Years Of Wandering · Годы Странствий
DR10 -4.05 dB -17.10 dB 3:27 ?-A5 Tape-Recorder Of A Man · Человек-Магнитофон
DR12 -3.13 dB -17.46 dB 4:34 ?-B1 Singing Mime · Поющий Мим
DR10 -1.90 dB -15.95 dB 3:34 ?-B2 After Holiday · После Праздника
DR12 -1.50 dB -15.23 dB 2:44 ?-B3 Love The Pianist · Полюбите Пианиста
DR10 -3.36 dB -16.11 dB 3:43 ?-B4 Dialogue · Диалог
DR11 -1.48 dB -15.22 dB 3:56 ?-B5 Green Light · Зеленый Свет
--------------------------------------------------------------------------------
Number of tracks: 10
Official DR value: DR11
Samplerate: 96000 Hz
Channels: 2
Bits per sample: 24
Bitrate: 2902 kbps
Codec: FLAC
================================================================================
Спектрограмма:
.CUE:
REM GENRE "Soul, Pop"
REM DATE "1984, Reissue 1985"
REM COMMENT "Vinyl, LP, Album, Repress, Мелодия – С60 21271 006, USSR"
TITLE "Диалог (Песни Рай монда Паулса)"
PERFORMER "Валерий Леонтьев"
FILE "01. Сторона 1.flac" WAVE
TRACK 01 AUDIO
TITLE "A1 Verooka · Вероока"
INDEX 01 00:00:00
TRACK 02 AUDIO
TITLE "A2 Heart’s Eclipse · Затмение Сердца"
INDEX 01 04:00:42
TRACK 03 AUDIO
TITLE "A3 I Don't Say Good-bye To You · Я С Тобой Не Прощаюсь"
INDEX 01 07:39:23
TRACK 04 AUDIO
TITLE "A4 Years Of Wandering · Годы Странствий"
INDEX 01 10:46:21
TRACK 05 AUDIO
TITLE "A5 Tape-Recorder Of A Man · Человек-Магнитофон"
INDEX 01 14:56:19
FILE "02. Сторона 2.flac" WAVE
TRACK 06 AUDIO
TITLE "B1 Singing Mime · Поющий Мим"
INDEX 01 00:00:00
TRACK 07 AUDIO
TITLE "B2 After Holiday · После Праздника"
INDEX 01 04:34:30
TRACK 08 AUDIO
TITLE "B3 Love The Pianist · Полюбите Пианиста"
INDEX 01 08:08:30
TRACK 09 AUDIO
TITLE "B4 Dialogue · Диалог"
INDEX 01 10:52:07
TRACK 10 AUDIO
TITLE "B5 Green Light · Зеленый Свет"
INDEX 01 14:35:35
Covers:
LP2 "Бархатный сезон" - 1986 (переиздание 1987 г.):
Треклист:
A1 Гиподинамия · Hypodynamics
A2 Притяжение Любви · Attraction Of Love
A3 Три Минуты · Three Minutes
A4 Карусель · Merry-Go-Round
B1 Бархатный Сезон · Best Holiday Season
B2 В Стиле Шторма · Like A Storm
B3 Маяк · Lighthouse
B4 Комета Галлея · Halley's Comet
Продолжительность: 00:36:15
Отчёт MI:
Общее
Полное имя : D:\[NNMClub] Валерий Леонтьев - Песни Раймонда Паулса [2LP] - 1984, 1986 (flac)\02. ''Бархатный сезон'' (1986)\01. Sound\01. Сторона 1.flac
Формат : FLAC
Формат/Информация : Free Lossless Audio Codec
Размер файла : 372 Мбайт
Продолжительность : 17 м. 5 с.
Режим общего битрейта : Переменный
Общий поток : 3045 Кбит/сек
Дата записи : 2017-07-13T12:27:58+06:00
Аудио
Формат : FLAC
Формат/Информация : Free Lossless Audio Codec
Продолжительность : 17 м. 5 с.
Вид битрейта : Переменный
Битрейт : 3045 Кбит/сек
Каналы : 2 канала
Расположение каналов : Front: L R
Частота : 96,0 КГц
Битовая глубина : 24 бит
Размер потока : 372 Мбайт (100%)
Библиотека кодирования : libFLAC 1.2.1 (UTC 2007-09-17)
Общее
Полное имя : D:\[NNMClub] Валерий Леонтьев - Песни Раймонда Паулса [2LP] - 1984, 1986 (flac)\02. ''Бархатный сезон'' (1986)\01. Sound\02. Сторона 2.flac
Формат : FLAC
Формат/Информация : Free Lossless Audio Codec
Размер файла : 412 Мбайт
Продолжительность : 19 м. 9 с.
Режим общего битрейта : Переменный
Общий поток : 3005 Кбит/сек
Дата записи : 2017-07-13T12:47:43+06:00
Аудио
Формат : FLAC
Формат/Информация : Free Lossless Audio Codec
Продолжительность : 19 м. 9 с.
Вид битрейта : Переменный
Битрейт : 3005 Кбит/сек
Каналы : 2 канала
Расположение каналов : Front: L R
Частота : 96,0 КГц
Битовая глубина : 24 бит
Размер потока : 412 Мбайт (100%)
Библиотека кодирования : libFLAC 1.2.1 (UTC 2007-09-17)
Отчёт DRM (DR14):
foobar2000 1.1.3 / Dynamic Range Meter 1.1.1
log date: 2017-07-14 13:01:16
--------------------------------------------------------------------------------
Analyzed: Валерий Леонтьев / Бархатный Сезон
--------------------------------------------------------------------------------
DR Peak RMS Duration Track
--------------------------------------------------------------------------------
DR14 -2.22 dB -17.89 dB 3:50 ?-A1 Гиподинамия · Hypodynamics
DR14 -2.36 dB -20.06 dB 4:20 ?-A2 Притяжение Любви · Attraction Of Love
DR13 -2.33 dB -18.53 dB 5:37 ?-A3 Три Минуты · Three Minutes
DR13 -2.67 dB -18.15 dB 3:18 ?-A4 Карусель · Merry-Go-Round
DR14 -2.34 dB -21.06 dB 5:22 ?-B1 Бархатный Сезон · Best Holiday Season
DR14 -2.39 dB -19.29 dB 4:05 ?-B2 В Стиле Шторма · Like A Storm
DR15 -2.45 dB -20.98 dB 5:07 ?-B3 Маяк · Lighthouse
DR14 -1.50 dB -17.80 dB 4:34 ?-B4 Комета Галлея · Halley's Comet
--------------------------------------------------------------------------------
Number of tracks: 8
Official DR value: DR14
Samplerate: 96000 Hz
Channels: 2
Bits per sample: 24
Bitrate: 3005 kbps
Codec: FLAC
================================================================================
Спектрограмма:
.CUE:
REM GENRE "Synth-pop, Disco"
REM DATE "1986, Reissue 1987"
REM COMMENT "Vinyl, LP, Album, Repress, Мелодия – С60 24623 004, USSR"
TITLE "Бархатный Сезон"
PERFORMER "Валерий Леонтьев"
FILE "01. Сторона 1.flac" WAVE
TRACK 01 AUDIO
TITLE "A1 Гиподинамия · Hypodynamics"
INDEX 01 00:00:00
TRACK 02 AUDIO
TITLE "A2 Притяжение Любви · Attraction Of Love"
INDEX 01 03:50:33
TRACK 03 AUDIO
TITLE "A3 Три Минуты · Three Minutes"
INDEX 01 08:10:41
TRACK 04 AUDIO
TITLE "A4 Карусель · Merry-Go-Round"
INDEX 01 13:47:24
FILE "02. Сторона 2.flac" WAVE
TRACK 05 AUDIO
TITLE "B1 Бархатный Сезон · Best Holiday Season"
INDEX 01 00:00:00
TRACK 06 AUDIO
TITLE "B2 В Стиле Шторма · Like A Storm"
INDEX 01 05:22:07
TRACK 07 AUDIO
TITLE "B3 Маяк · Lighthouse"
INDEX 01 09:27:15
TRACK 08 AUDIO
TITLE "B4 Комета Галлея · Halley's Comet"
INDEX 01 14:34:50
Covers:
-
YouTube:
-Время раздачи: 07:00 - 18:00 msc (до появления первых 3-5 скачавших)
[Профиль] [ЛС]
Показать сообщения:    
Ответить на тему

Текущее время: 22-Мар 05:56

Часовой пояс: UTC + 3



Вы не можете начинать темы
Вы не можете отвечать на сообщения
Вы не можете редактировать свои сообщения
Вы не можете удалять свои сообщения
Вы не можете голосовать в опросах
Вы не можете прикреплять файлы к сообщениям
Вы не можете скачивать файлы