Сегодня идет свободное скачивание без начисления Download

Ким Пять-с-плюсом / Kim Possible (2019) WEB-DL 1080p | HDrezka Studio

Ответить на тему
Статистика раздачи
Размер:  6,5 GB   |    Зарегистрирован:  7 дней   |    Скачан:  0 раз
Сидов:  33  [  0 KB/s  ]   Личеров:  18  [  0 KB/s  ]   Подробная статистика пиров
 
   
 
 
Автор Сообщение

Bot ®

Стаж: 6 лет 10 месяцев

Сообщений: 36942

Откуда: СССР

Создавать темы 14-Мар-2019 07:51

[Цитировать]

Информация о фильме
Название: Ким Пять-с-плюсом
Оригинальное название: Kim Possible
Год выхода: 2019
Жанр: Боевик, комедия, приключения
Режиссер: Зэк Липовски, Адам Б. Стейн
В ролях: Сэди Стэнли, Шон Джамброун, Тодд Стэшвик, Тейлор Ортега, Элисон Хэннигэн, Сиара Уилсон, Иссак Райан Браун, Коннор Филдинг, Оуэн Филдинг, Конни Рэй
О фильме: Ким – типичная старшеклассница. Вот только это на первый взгляд она обычная и ничем не примечательная ученица средней школы. На самом же деле Ким настоящий супергерой.
-

Страна: США
Студия: Omni Film Productions
Продолжительность: 01:26:00
Перевод: Профессиональный многоголосый [HDrezka Studio]
Файл
Кодек: MPEG-4 AVC
Качество: WEB-DL 1080p
Видео: 1920x1080, 9977kb/s, 23.976fps
Звук:
1) 192 kb/s, 2 ch, 48000 kHz, AC3 [RUS] | HDrezka Studio
2) 640 kb/s, 6 ch, 48000 kHz, E-AC3 [ENG] | Английский оригинал
Субтитры: Английские
MI
Формат : Matroska
Версия формата : Version 4 / Version 2
Размер файла : 6,50 Гбайт
Продолжительность : 1 ч. 26 м.
Общий поток : 10,8 Мбит/сек
Название фильма : Kim Possible 2019 OT werecut PROD.
Дата кодирования : UTC 2019-03-10 14:05:03
Программа кодирования : mkvmerge v28.0.0 ('Voice In My Head') 64-bit
Библиотека кодирования : libebml v1.3.6 + libmatroska v1.4.9
Видео
Идентификатор : 1
Формат : AVC
Формат/Информация : Advanced Video Codec
Профиль формата : High@L4
Настройки формата : CABAC / 4 Ref Frames
Параметр CABAC формата : Да
Параметр RefFrames формата : 4 кадра
Идентификатор кодека : V_MPEG4/ISO/AVC
Продолжительность : 1 ч. 26 м.
Битрейт : 9977 Кбит/сек
Ширина : 1920 пикселей
Высота : 1080 пикселей
Соотношение сторон : 16:9
Режим частоты кадров : Постоянный
Частота кадров : 23,976 (24000/1001) кадра/сек
Цветовое пространство : YUV
Субдискретизация насыщенности : 4:2:0
Битовая глубина : 8 бит
Тип развёртки : Прогрессивная
Бит/(Пиксели*Кадры) : 0.201
Размер потока : 5,99 Гбайт (92%)
Язык : English
Default : Да
Forced : Нет
Цветовой диапазон : Limited
Основные цвета : BT.709
Характеристики трансфера : BT.709
Коэффициенты матрицы : BT.709
Аудио #1
Идентификатор : 2
Формат : AC-3
Формат/Информация : Audio Coding 3
Идентификатор кодека : A_AC3
Продолжительность : 1 ч. 26 м.
Вид битрейта : Постоянный
Битрейт : 192 Кбит/сек
Каналы : 2 канала
Расположение каналов : Front: L R
Частота : 48,0 КГц
Частота кадров : 31,250 кадров/сек (1536 SPF)
Битовая глубина : 16 бит
Метод сжатия : С потерями
Размер потока : 118 Мбайт (2%)
Заголовок : HDREZKA STUDIO
Язык : Russian
Default : Да
Forced : Да
Аудио #2
Идентификатор : 3
Формат : E-AC-3
Формат/Информация : Enhanced Audio Coding 3
Идентификатор кодека : A_EAC3
Продолжительность : 1 ч. 26 м.
Вид битрейта : Постоянный
Битрейт : 640 Кбит/сек
Каналы : 6 каналов
Расположение каналов : Front: L C R, Side: L R, LFE
Частота : 48,0 КГц
Частота кадров : 187,500 кадров/сек (256 SPF)
Метод сжатия : С потерями
Размер потока : 394 Мбайт (6%)
Язык : English
Default : Нет
Forced : Нет
Текст
Идентификатор : 4
Формат : UTF-8
Идентификатор кодека : S_TEXT/UTF8
Идентификатор кодека/Информация : UTF-8 Plain Text
Продолжительность : 1 ч. 25 м.
Битрейт : 64 бит/сек
ElementCount : 1784
Размер потока : 40,5 Кбайт (0%)
Заголовок : SDH
Язык : English
Default : Нет
Forced : Нет
Скриншоты
[realmt.org].t1183528.torrent 
Торрент: Зарегистрирован [ 2019-03-14 07:51 ] · F29BB64EB5544452F5D850DC1E68FE06187C18

Скачать .torrent

Скачать

17 KB

Статус: проверено
Скачан: 0 раз
Размер: 6,5 GB
terms.php
Последние поблагодарившие
[Профиль] [ЛС]
Быстрый ответ

Имя:

      
Для отправки сообщений необходимо включить JavaScript
Показать сообщения:    
Ответить на тему

Текущее время: 22-Мар 05:04

Часовой пояс: UTC + 3



Вы можете начинать темы
Вы можете отвечать на сообщения
Вы не можете редактировать свои сообщения
Вы не можете удалять свои сообщения
Вы не можете голосовать в опросах
Вы не можете прикреплять файлы к сообщениям
Вы можете скачивать файлы