Сегодня идет свободное скачивание без начисления Download

Корпоратив (2016) WEBRip

Ответить на тему
 
Автор Сообщение

Bot ®

Стаж: 3 года 3 месяца

Сообщений: 9

Создавать темы 14-Мар-2019 10:15

[Цитировать]

Корпоратив (2016) WEBRip - Производство: Россия
Жанр: Короткометражный, комедия
Режиссер: Илья Захаров
Актеры: Евгений Венедиктов, Елена Мелентьева, Лилия Гланц, Сергей Лобынцев, Анастасия Медведева
Описание:
Примерный семьянин Роман решает провести хотя бы один вечер для себя, впервые оставшись на корпоратив с коллегами. Проснувшись утром дома Рома обнаруживает, что корпоратив не прошел бесследно и ему предстоит сделать выбор, поставив на кон все, что у него есть.

Продолжительность: 00:14:00
Качество видео: WEBRip
Субтитры: Отсутствуют
Видео: Xvid, 720x304 (2.35:1), ~1830 Kbps
Аудио: AC3, 2 ch, 192 Kbps
Mediainfo:
Общее
Полное имя : D:\Корпоратив (2016).avi
Формат : AVI
Формат/Информация : Audio Video Interleave
Размер файла : 204 Мбайт
Продолжительность : 14 м. 1 с.
Общий поток : 2034 Кбит/сек
Программа кодирования : Lavf57.71.100
Видео
Идентификатор : 0
Формат : MPEG-4 Visual
Профиль формата : Advanced Simple@L5
Настройки формата : BVOP2
Параметр BVOP формата : 2
Параметр QPel формата : Нет
Параметр GMC формата : Без точки перехода
Параметр матрицы формата : Default (H.263)
Идентификатор кодека : XVID
Идентификатор кодека/Подсказка : XviD
Продолжительность : 14 м. 0 с.
Битрейт : 1832 Кбит/сек
Ширина : 720 пикселей
Высота : 304 пикселя
Соотношение сторон : 2,35:1
Частота кадров : 25,000 кадров/сек
Цветовое пространство : YUV
Субдискретизация насыщенности : 4:2:0
Битовая глубина : 8 бит
Тип развёртки : Прогрессивная
Метод сжатия : С потерями
Бит/(Пиксели*Кадры) : 0.335
Размер потока : 184 Мбайт (90%)
Библиотека кодирования : XviD 67
Аудио
Идентификатор : 1
Формат : AC-3
Формат/Информация : Audio Coding 3
Коммерческое название : Dolby Digital
Идентификатор кодека : 2000
Продолжительность : 14 м. 1 с.
Вид битрейта : Постоянный
Битрейт : 192 Кбит/сек
Каналы : 2 канала
Channel layout : L R
Частота : 48,0 КГц
Частота кадров : 31,250 кадров/сек (1536 SPF)
Битовая глубина : 16 бит
Метод сжатия : С потерями
Размер потока : 19,2 Мбайт (9%)
Выравнивание : Соединение по промежуткам
Продолжительность промежутка : 32 мс. (0,80 видеокадр)
ServiceKind/String : Complete Main
Скриншоты:
Все одноименные релизы в КлубеВремя раздачи: 24/7 (круглосуточно) (до появления первых 3-5 скачавших)
[Профиль] [ЛС]
Показать сообщения:    
Ответить на тему

Текущее время: 22-Мар 05:03

Часовой пояс: UTC + 3



Вы не можете начинать темы
Вы не можете отвечать на сообщения
Вы не можете редактировать свои сообщения
Вы не можете удалять свои сообщения
Вы не можете голосовать в опросах
Вы не можете прикреплять файлы к сообщениям
Вы не можете скачивать файлы