Сегодня идет свободное скачивание без начисления Download

Woob - スリープ 研究 プログラム (2018) Time Limited [FLAC|Lossless|WEB-24Bit|tracks] <Ambient, Berlin-School>

Ответить на тему
 
Автор Сообщение

Bot ®

Стаж: 4 года 4 месяца

Сообщений: 12

Создавать темы 14-Мар-2019 13:30

[Цитировать]

Woob スリープ 研究 プログラム- Жанр: Ambient, Berlin-School
Издание: Time Limited - TL006
Источник: ссылка
Продолжительность: 00:54:30
Кодек: FLAC
Битрейт: Lossless|24Bit
Тип рипа: tracks
Треклист:

01. 夢 Vendor (04:57)
02. 上の Lv.F (09:40)
03. 1980 [A シミュレーションSimulation] Part Corrupt (05:14)
04. スリープ 深淵 (10:22)
05. 脳 ビーコン (02:30)
06. Megaplex ドリフタ (15:07)
07. マインド 穴 (02:44)
Dynamic Range Meter:
foobar2000 1.4 / Dynamic Range Meter 1.1.1
log date: 2019-02-21 19:35:28
--------------------------------------------------------------------------------
Analyzed: Woob / スリープ 研究 プログラム
--------------------------------------------------------------------------------
DR Peak RMS Duration Track
--------------------------------------------------------------------------------
DR5 -0.31 dB -7.53 dB 4:58 ?-夢 Vendor
DR9 0.00 dB -11.28 dB 9:41 ?-上の Lv.F
DR5 -0.30 dB -7.51 dB 5:14 ?-1980 [A シミュレーションSimulation] Part Corrupt
DR11 -0.31 dB -16.56 dB 10:22 ?-スリープ 深淵
DR10 -8.20 dB -24.35 dB 2:30 ?-脳 ビーコン
DR9 -0.02 dB -10.94 dB 15:08 ?-Megaplex ドリフタ
DR5 -2.44 dB -12.48 dB 2:45 ?-マインド 穴
--------------------------------------------------------------------------------
Number of tracks: 7
Official DR value: DR8
Samplerate: 44100 Hz
Channels: 2
Bits per sample: 24
Bitrate: 1094 kbps
Codec: FLAC
================================================================================
Discogs
Время раздачи: 12/7
[Профиль] [ЛС]
Показать сообщения:    
Ответить на тему

Текущее время: 22-Мар 05:04

Часовой пояс: UTC + 3



Вы не можете начинать темы
Вы не можете отвечать на сообщения
Вы не можете редактировать свои сообщения
Вы не можете удалять свои сообщения
Вы не можете голосовать в опросах
Вы не можете прикреплять файлы к сообщениям
Вы не можете скачивать файлы