Сегодня идет свободное скачивание без начисления Download

Ирина Шипилова | 30 неправильных глаголов [1 курс, часть 1] (2017) CamRip [H.264]

Ответить на тему
 
Автор Сообщение

Bot ®

Стаж: 3 года 1 месяц

Сообщений: 12

Создавать темы 14-Мар-2019 17:45

[Цитировать]

Ирина Шипилова | 30 неправильных глаголов [1 курс, часть 1] (2017) CamRip [H.264]- Автор (режиссер): Ирина Шипилова
Жанр: Лингвистика, английский язык
Описание:
Формы Глаголов нужны для того, чтобы использовать их во временах Past Simple, Present Perfect, Past Perfect, в пассивном залоге и причастиях прошедшего времени. Поэтому давайте их изучать. Я разделила обучение на 3 под-курса, чтобы поглощать информацию порциями. В каждом под-курсе мы изучим 30 неправильных глаголов + дополнительные новые слова. За 3 курса вы изучите 90 неправильных глаголов, что достаточно для полноценного общения. Я думаю, вам будет полезно посмотреть видео-описание к каждому курсу для деталей.
Продолжительность: 01:20:13
Качество видео: CamRip
Видео: AVC/H.264, 640x360, ~626 Kbps
Аудио: AAC, 2 ch, 105-192 Kbps
Mediainfo:
Общее
Полное имя 1 КУРС (30 НЕПРАВИЛЬНЫХ ГЛАГОЛОВ)(1).mp4
Формат : MPEG-4
Профиль формата : Base Media / Version 2
Идентификатор кодека : mp42 (isom/mp42)
Размер файла : 98,6 Мбайт
Продолжительность : 19 м. 1 с.
Режим общего битрейта : Переменный
Общий поток : 725 Кбит/сек
Дата кодирования : UTC 2016-04-08 19:35:28
Дата пометки : UTC 2016-04-08 19:35:28
gsst : 0
gstd : 1141306
Видео
Идентификатор : 1
Формат : AVC
Формат/Информация : Advanced Video Codec
Профиль формата : Baseline@L3
Настройки формата : 1 Ref Frames
Параметр CABAC формата : Нет
Параметр RefFrames формата : 1 кадр
Параметр GOP формата : M=1, N=60
Идентификатор кодека : avc1
Идентификатор кодека/Информация : Advanced Video Coding
Продолжительность : 19 м. 1 с.
Битрейт : 626 Кбит/сек
Максимальный битрейт : 1451 Кбит/сек
Ширина : 640 пикселей
Высота : 360 пикселей
Соотношение сторон : 16:9
Режим частоты кадров : Постоянный
Частота кадров : 25,000 кадров/сек
Цветовое пространство : YUV
Субдискретизация насыщенности : 4:2:0
Битовая глубина : 8 бит
Тип развёртки : Прогрессивная
Бит/(Пиксели*Кадры) : 0.109
Размер потока : 85,2 Мбайт (86%)
Дата пометки : UTC 2016-04-08 19:35:32
Codec configuration box : avcC
Аудио
Идентификатор : 2
Формат : AAC LC
Формат/Информация : Advanced Audio Codec Low Complexity
Идентификатор кодека : mp4a-40-2
Продолжительность : 19 м. 1 с.
Вид битрейта : Переменный
Битрейт : 96,0 Кбит/сек
Максимальный битрейт : 103 Кбит/сек
Каналы : 2 канала
Channel layout : L R
Частота : 44,1 КГц
Частота кадров : 43,066 кадра/сек (1024 SPF)
Метод сжатия : С потерями
Размер потока : 13,1 Мбайт (13%)
Заголовок : IsoMedia File Produced by Google, 5-11-2011
Язык : English
Дата кодирования : UTC 2016-04-08 19:35:30
Дата пометки : UTC 2016-04-08 19:35:32
Скриншоты:
Время раздачи: Пн-Пт с 18:00 до 22:00 (до появления первых 3-5 скачавших)
[Профиль] [ЛС]
Показать сообщения:    
Ответить на тему

Текущее время: 22-Мар 05:03

Часовой пояс: UTC + 3



Вы не можете начинать темы
Вы не можете отвечать на сообщения
Вы не можете редактировать свои сообщения
Вы не можете удалять свои сообщения
Вы не можете голосовать в опросах
Вы не можете прикреплять файлы к сообщениям
Вы не можете скачивать файлы