Сегодня идет свободное скачивание без начисления Download

Пинк Флойд / Pink Floyd - Delicate Sound Of Thunder (1989) HDRip 720p

Ответить на тему
 
Автор Сообщение

Bot ®

Стаж: 3 года 8 месяцев

Сообщений: 5

Создавать темы 14-Мар-2019 19:30

[Цитировать]

Пинк Флойд / Pink Floyd - Delicate Sound Of Thunder (1989) HDRip 720p- Производство: США, CBS/SONY Japan, Laserdisc Transfer HQ
Год выпуска: 1989
Жанр: Концерт, прогрессивный рок, арт-рок
Режиссер: Уэйн Ишэм
Актеры: Дэвид Гилмор, Ник Мейсон, Ричард Райт
Описание: Delicate Sound of Thunder - видеофильм Уэйна Ишэма — съёмки концертов группы Pink Floyd, проходивших в рамках тура в поддержку альбома 1987 года A Momentary Lapse of Reason в Нью-Йорке («Nassau Veterans Memorial Coliseum») с 19 по 23 августа 1988 года и на площади перед Версальским дворцом (Place d’Armes, Château de Versailles) во Франции 21 и 22 июня 1988 года. Постановка светового шоу отснятых концертов была осуществлена Марком Брикманом (Marc Brickman), продюсирование музыки - Дэвидом Гилмором. Демонстрируемые кадры на круглом экране над сценой, сопровождающие исполнение музыкальных композиций во время концерта, показанного в фильме, представляют собой видео, снятое Стормом Торгерсоном и анимацию Яна Имса (Ian Eames) (во время исполнения «Time»). Фильм был выпущен 13 июня 1989 года в форматах VHS и Laserdisc.
Треклист:
01. Shine On You Crazy Diamond (Intro)
02. Signs Of Life
03. Learning To Fly
04. Sorrow
05. The Dogs Of War
06. On The Turning Away
07. One Of These Days
08. Time
09. On The Run
10. The Great Gig In The Sky
11. Wish You Were Here
12. Us & Them
13. Comfortably Numb
14. One Slip
15. Run Like Hell
16. Shine On (Reprise) (End Credits)
Релиз от: UrryMan (За исходник спасибо пользователю Mclaus)
Продолжительность: 01:30:43
Качество видео: HDRip (Laser Disc Rip)
Язык: Английский
Видео: AVC/H.264, 944x720, 30 fps, ~4000 Kbps
Аудио: FLAC, 48 kHz, 24 bit, 2 ch, 1601 Kbps
-
Mediainfo:
Общее
Уникальный идентификатор : 69835953500266284372975700783816851470 (0x3489EA57EC4F05B2A7438B186349400E)
Полное имя : D:\Хранилище\Видео\Pink Floyd\Pink Floyd - Delicate Sound of Thunder.mkv
Формат : Matroska
Версия формата : Version 4
Размер файла : 3,55 Гбайт
Продолжительность : 1 ч. 30 м.
Режим общего битрейта : Переменный
Общий поток : 5604 Кбит/сек
Дата кодирования : UTC 2019-02-21 21:16:14
Программа кодирования : mkvmerge v30.1.0 ('Forever And More') 64-bit
Библиотека кодирования : libebml v1.3.6 + libmatroska v1.4.9
Обложка : Yes
Attachments : cover.jpg
Видео
Идентификатор : 1
Формат : AVC
Формат/Информация : Advanced Video Codec
Профиль формата : High@L4
Настройки формата : CABAC / 9 Ref Frames
Параметр CABAC формата : Да
Параметр RefFrames формата : 9 кадров
Идентификатор кодека : V_MPEG4/ISO/AVC
Продолжительность : 1 ч. 30 м.
Битрейт : 4000 Кбит/сек
Ширина : 944 пикселя
Высота : 720 пикселей
Соотношение сторон : 4:3
Режим частоты кадров : Постоянный
Частота кадров : 30,000 кадров/сек
Цветовое пространство : YUV
Субдискретизация насыщенности : 4:2:0
Битовая глубина : 8 бит
Тип развёртки : Прогрессивная
Бит/(Пиксели*Кадры) : 0.196
Размер потока : 2,54 Гбайт (71%)
Библиотека кодирования : x264 core 157 r2935 545de2f
Настройки программы : cabac=1 / ref=9 / deblock=1:-3:-3 / analyse=0x3:0x133 / me=esa / subme=11 / psy=1 / psy_rd=1.00:0.00 / mixed_ref=1 / me_range=32 / chroma_me=1 / trellis=2 / 8x8dct=1 / cqm=0 / deadzone=21,11 / fast_pskip=0 / chroma_qp_offset=-2 / threads=18 / lookahead_threads=1 / sliced_threads=0 / nr=0 / decimate=1 / interlaced=0 / bluray_compat=0 / constrained_intra=0 / bframes=3 / b_pyramid=2 / b_adapt=2 / b_bias=0 / direct=3 / weightb=1 / open_gop=0 / weightp=2 / keyint=300 / keyint_min=30 / scenecut=40 / intra_refresh=0 / rc_lookahead=100 / rc=2pass / mbtree=1 / bitrate=4000 / ratetol=2.0 / qcomp=0.60 / qpmin=0 / qpmax=51 / qpstep=4 / cplxblur=20.0 / qblur=0.5 / vbv_maxrate=25000 / vbv_bufsize=31250 / nal_hrd=none / filler=0 / ip_ratio=1.40 / aq=1:1.00
Default : Да
Forced : Нет
Аудио
Идентификатор : 2
Формат : FLAC
Формат/Информация : Free Lossless Audio Codec
Идентификатор кодека : A_FLAC
Продолжительность : 1 ч. 30 м.
Вид битрейта : Переменный
Битрейт : 1601 Кбит/сек
Каналы : 2 канала
Channel layout : L R
Частота : 48,0 КГц
Частота кадров : 11,719 кадров/сек (4096 SPF)
Битовая глубина : 24 бит
Метод сжатия : Без потерь
Размер потока : 1,01 Гбайт (29%)
Библиотека кодирования : libFLAC 20080709 (UTC 2008-07-09)
Язык : English
Default : Да
Forced : Нет
Меню
00:00:25.167 : en:Chapter 01
00:04:10.733 : en:Chapter 02
00:07:18.967 : en:Chapter 03
00:12:02.333 : en:Chapter 04
00:20:56.933 : en:Chapter 05
00:28:12.933 : en:Chapter 06
00:36:06.367 : en:Chapter 07
00:42:37.167 : en:Chapter 08
00:47:38.833 : en:Chapter 09
00:49:52.733 : en:Chapter 10
00:54:35.300 : en:Chapter 11
00:59:19.700 : en:Chapter 12
01:06:53.900 : en:Chapter 13
01:14:07.733 : en:Chapter 14
01:20:02.500 : en:Chapter 15
01:26:51.200 : en:Chapter 16
Дополнительная информация:
При кодировании видео применён шумодав. Воспроизведение ускорено с 29.970 до 30.000 кадров в секунду. Для удобства навигации в файл вшиты главы.
Скриншоты:
Все одноименные релизы в Клубе
Время раздачи: Круглосуточно 24/7 (до появления первых 3-5 скачавших)
[Профиль] [ЛС]
Показать сообщения:    
Ответить на тему

Текущее время: 22-Мар 05:35

Часовой пояс: UTC + 3



Вы не можете начинать темы
Вы не можете отвечать на сообщения
Вы не можете редактировать свои сообщения
Вы не можете удалять свои сообщения
Вы не можете голосовать в опросах
Вы не можете прикреплять файлы к сообщениям
Вы не можете скачивать файлы