Сегодня идет свободное скачивание без начисления Download

Захват / Захоплення (2019) WEBRip (сезон 1, серии 1-8 из 8)

Ответить на тему
 
Автор Сообщение

Bot ®

Стаж: 4 года 1 месяц

Сообщений: 17

Создавать темы 14-Мар-2019 20:15

[Цитировать]

Захват / Захоплення (2019) WEBRip (сезон 1, серии 1-8 из 8) - Производство: Украина / 07 продакшн, по заказу телеканала Интер
Жанр: боевик, детектив, криминал
Режиссер: Хачатур Василян, Роман Веркулич
Актеры: Станислав Боклан, Георгий Поволоцкий, Никита Вакулюк, Слава Красовская, Альберт Малик, Александр Божко, Вадим Павленко, Владимир Скорик, Ирина Веренич-Островская
Описание:
Главные герои — правоохранители, для которых закон превыше всего. У членов команды есть свои жизненные драмы и личные трагедии. Они чувствуют чужую боль, как свою, и честно исполняют долг, защищая простых людей от преступников.

Дата мировой премьеры: 11 февраля 2019 (Интер)
Продолжительность: ~00:41:00 серия
Качество видео: WEBRip
Язык озвучки: русский
Видео: Xvid, 720x400 (16:9), ~1727 kbps
Аудио: AC3, 2 ch, 192 Kbps
Mediainfo:
General
Complete name : D:\Мои фильмы\Zahvat_S1_1-8iz8_2018_XviD_WEBRip\Zahvat_S1_1.avi
Format : AVI
Format/Info : Audio Video Interleave
File size : 555 MiB
Duration : 40 min 15 s
Overall bit rate : 1 929 kb/s
Writing library : VirtualDub2 build 41867/release
Video
ID : 0
Format : MPEG-4 Visual
Format profile : Advanced Simple@L5
Format settings : BVOP2
Format settings, BVOP : 2
Format settings, QPel : No
Format settings, GMC : No warppoints
Format settings, Matrix : Default (H.263)
Codec ID : XVID
Codec ID/Hint : XviD
Duration : 40 min 15 s
Bit rate : 1 727 kb/s
Width : 720 pixels
Height : 400 pixels
Display aspect ratio : 16:9
Frame rate : 25.000 FPS
Color space : YUV
Chroma subsampling : 4:2:0
Bit depth : 8 bits
Scan type : Progressive
Compression mode : Lossy
Bits/(Pixel*Frame) : 0.240
Stream size : 497 MiB (90%)
Writing library : XviD 67
Audio
ID : 1
Format : AC-3
Format/Info : Audio Coding 3
Commercial name : Dolby Digital
Codec ID : 2000
Duration : 40 min 15 s
Bit rate mode : Constant
Bit rate : 192 kb/s
Channel(s) : 2 channels
Channel layout : L R
Sampling rate : 48.0 kHz
Frame rate : 31.250 FPS (1536 SPF)
Bit depth : 16 bits
Compression mode : Lossy
Stream size : 55.3 MiB (10%)
Alignment : Aligned on interleaves
Interleave, duration : 40 ms (1.00 video frame)
Interleave, preload duration : 512 ms
Service kind : Complete Main
Скриншоты:
Все одноименные релизы в КлубеВремя раздачи: с 07:00 до 23:00 (до появления первых 3-5 скачавших)
[Профиль] [ЛС]
Показать сообщения:    
Ответить на тему

Текущее время: 22-Мар 05:44

Часовой пояс: UTC + 3



Вы не можете начинать темы
Вы не можете отвечать на сообщения
Вы не можете редактировать свои сообщения
Вы не можете удалять свои сообщения
Вы не можете голосовать в опросах
Вы не можете прикреплять файлы к сообщениям
Вы не можете скачивать файлы