Сегодня идет свободное скачивание без начисления Download

ДиДюЛя - Седьмое чувство (2018) [FLAC|Lossless|tracks + .cue] <Instrumental>

Ответить на тему
 
Автор Сообщение

Bot ®

Стаж: 2 года 11 месяцев

Сообщений: 7

Создавать темы 14-Мар-2019 20:45

[Цитировать]

ДиДюЛя - Седьмое чувство (2018) - Жанр: Instrumental
Издание: Первое Музыкальное Издательство
Источник: new-team
Продолжительность: 00:36:15
Кодек: FLAC
Битрейт: Lossless
Тип рипа: tracks + .cue
Треклист:
01. Колесо времени (Велюровый вальс)
02. Покорители пространства (Ветряные мельницы)
03. Танец с дождём (Причудливые круги)
04. Люди индиго (Объект перемен)
05. Седьмое чувство (Молчания ветров)
06. Солнце в бутылке (Фестиваль вина)
07. Созвездие Водолея (Расстояние и время)
08. Зацелованная (feat. EVгеника, Бурановские бабушки)
09. Любитель бабочек ( 蝴蝶爱好者 )
10. Бабочки (Волшебные феи)
Дополнительная информация:
Отчёт EAC:
Exact Audio Copy V1.3 from 2. September 2016
EAC extraction logfile from 29. January 2019, 21:07
ДиДюЛя / Седьмое чувство
Used drive : PIONEER DVD-RW DVR-221L Adapter: 1 ID: 1
Read mode : Secure
Utilize accurate stream : Yes
Defeat audio cache : Yes
Make use of C2 pointers : No
Read offset correction : 6
Overread into Lead-In and Lead-Out : No
Fill up missing offset samples with silence : Yes
Delete leading and trailing silent blocks : No
Null samples used in CRC calculations : Yes
Used interface : Native Win32 interface for Win NT & 2000
Gap handling : Appended to previous track
Used output format : User Defined Encoder
Selected bitrate : 1024 kBit/s
Quality : High
Add ID3 tag : No
Command line compressor : C:\Program Files (x86)\Exact Audio Copy\FLAC\FLAC.EXE
Additional command line options : -6 -V -T "COMMENT=Ripped by RRC" -T "ARTIST=%artist%" -T "TITLE=%title%" -T "ALBUM=%albumtitle%" -T "DATE=%year%" -T "TRACKNUMBER=%tracknr%" -T "GENRE=%genre%" -T "BAND=%albuminterpret%" -T "ALBUMARTIST=%albuminterpret%" -T "COMPOSER=%composer%" %haslyrics%--tag-from-file=LYRICS="%lyricsfile%"%haslyrics% -T "DISCNUMBER=%cdnumber%" -T "TOTALDISCS=%totalcds%" -T "TOTALTRACKS=%numtracks%" %hascover%--picture="%coverfile%"%hascover% %source%
TOC of the extracted CD
Track | Start | Length | Start sector | End sector
---------------------------------------------------------
1 | 0:00.00 | 3:10.37 | 0 | 14286
2 | 3:10.37 | 4:18.02 | 14287 | 33638
3 | 7:28.39 | 2:31.38 | 33639 | 45001
4 | 10:00.02 | 3:40.49 | 45002 | 61550
5 | 13:40.51 | 3:12.00 | 61551 | 75950
6 | 16:52.51 | 3:57.02 | 75951 | 93727
7 | 20:49.53 | 3:12.62 | 93728 | 108189
8 | 24:02.40 | 3:42.04 | 108190 | 124843
9 | 27:44.44 | 3:38.37 | 124844 | 141230
10 | 31:23.06 | 4:51.73 | 141231 | 163128
Track 1
Filename E:\RRCLtd Rip\01-Колесо времени (Велюровый вальс).wav
Pre-gap length 0:00:02.00
Peak level 98.8 %
Extraction speed 2.9 X
Track quality 100.0 %
Test CRC 11CA5428
Copy CRC 11CA5428
Track not present in AccurateRip database
Copy OK
Track 2
Filename E:\RRCLtd Rip\02-Покорители пространства (Ветряный мельницы).wav
Peak level 98.8 %
Extraction speed 3.3 X
Track quality 100.0 %
Test CRC DDC5B676
Copy CRC DDC5B676
Track not present in AccurateRip database
Copy OK
Track 3
Filename E:\RRCLtd Rip\03-Танец с дождем (Причудливые круги).wav
Peak level 98.8 %
Extraction speed 3.2 X
Track quality 100.0 %
Test CRC 6AA40CBD
Copy CRC 6AA40CBD
Track not present in AccurateRip database
Copy OK
Track 4
Filename E:\RRCLtd Rip\04-Люди индиго (Объект перемен).wav
Peak level 98.8 %
Extraction speed 3.6 X
Track quality 100.0 %
Test CRC 1BC2A786
Copy CRC 1BC2A786
Track not present in AccurateRip database
Copy OK
Track 5
Filename E:\RRCLtd Rip\05-Седьмое чувство (Молчание ветров).wav
Peak level 98.8 %
Extraction speed 3.8 X
Track quality 100.0 %
Test CRC 89E78FAA
Copy CRC 89E78FAA
Track not present in AccurateRip database
Copy OK
Track 6
Filename E:\RRCLtd Rip\06-Солнце в бутылке (Фестиваль вина).wav
Peak level 98.8 %
Extraction speed 3.1 X
Track quality 99.9 %
Test CRC AD57EDB7
Copy CRC AD57EDB7
Track not present in AccurateRip database
Copy OK
Track 7
Filename E:\RRCLtd Rip\07-Созвездие Водолея (Расстояние и время).wav
Peak level 89.8 %
Extraction speed 4.1 X
Track quality 100.0 %
Test CRC 178E6ACD
Copy CRC 178E6ACD
Track not present in AccurateRip database
Copy OK
Track 8
Filename E:\RRCLtd Rip\08-Зацелованная.wav
Peak level 98.8 %
Extraction speed 4.3 X
Track quality 100.0 %
Test CRC 86988153
Copy CRC 86988153
Track not present in AccurateRip database
Copy OK
Track 9
Filename E:\RRCLtd Rip\09-Любитель бабочек (蝴蝶爱好者).wav
Peak level 98.8 %
Extraction speed 4.5 X
Track quality 100.0 %
Test CRC 5590AAEC
Copy CRC 5590AAEC
Track not present in AccurateRip database
Copy OK
Track 10
Filename E:\RRCLtd Rip\10-Бабочки (Волшебные феи).wav
Peak level 98.8 %
Extraction speed 4.9 X
Track quality 100.0 %
Test CRC C6DDAC65
Copy CRC C6DDAC65
Track not present in AccurateRip database
Copy OK
None of the tracks are present in the AccurateRip database
No errors occurred
End of status report
---- CUETools DB Plugin V2.1.6
[CTDB TOCID: FRBgLWAJ_z95dJirJQVLVgqqwY8-] found
Submit result: already submitted
Track | CTDB Status
1 | (1/1) Accurately ripped
2 | (1/1) Accurately ripped
3 | (1/1) Accurately ripped
4 | (1/1) Accurately ripped
5 | (1/1) Accurately ripped
6 | (1/1) Accurately ripped
7 | (1/1) Accurately ripped
8 | (1/1) Accurately ripped
9 | (1/1) Accurately ripped
10 | (1/1) Accurately ripped
==== Log checksum BDE77813E83ED691E457DEADB173D4D34923FF7BA21679FCD8C114506B58B130 ====
Время раздачи: С 12:00 до 18:00 (МСК) (до появления первых 3-5 скачавших)-

Поглощение/вытеснение
Только с согласия релизера

Beijing65
[Профиль] [ЛС]
Показать сообщения:    
Ответить на тему

Текущее время: 22-Мар 05:53

Часовой пояс: UTC + 3



Вы не можете начинать темы
Вы не можете отвечать на сообщения
Вы не можете редактировать свои сообщения
Вы не можете удалять свои сообщения
Вы не можете голосовать в опросах
Вы не можете прикреплять файлы к сообщениям
Вы не можете скачивать файлы