Сегодня идет свободное скачивание без начисления Download

Mariah Carey - MTV Unplugged (1992) EP [FLAC|Lossless|image + .cue] <Hip Hop, Soul, RnB>

Ответить на тему
 
Автор Сообщение

Bot ®

Стаж: 3 года 7 месяцев

Сообщений: 10

Создавать темы 14-Мар-2019 21:00

[Цитировать]

Mariah Carey - MTV Unplugged (1992) EP - Автор рипа: samopal records
Жанр: Hip Hop, Soul, RnB
Издание: Columbia - CK 52758, US
Продолжительность: 00:28:47
Кодек: FLAC
Битрейт: Lossless
Тип рипа: image + .cue-Треклист:
01. Emotions
02. If It's Over
03. Someday
04. Vision Of Love
05. Make It Happen
06. I'll Be There
07. Can't Let Go-
Covers:
Отчёт EAC:
Exact Audio Copy V1.0 beta 3 from 29. August 2011
Отчёт EAC об извлечении, выполненном 3. февраля 2019, 23:18
Mariah Carey / MTV Unplugged EP
Дисковод: SONY CD-RW CRX230ED Adapter: 2 ID: 1
Режим чтения : Достоверность
Использование точного потока : Да
Отключение кэша аудио : Да
Использование указателей C2 : Нет
Коррекция смещения при чтении : 6
Способность читать области Lead-in и Lead-out : Нет
Заполнение пропущенных сэмплов тишиной : Да
Удаление блоков с тишиной в начале и конце : Нет
При вычислениях CRC использовались нулевые сэмплы : Да
Интерфейс : Встроенный Win32-интерфейс для Win NT/2000
Выходной формат : Пользовательский кодировщик
Выбранный битрейт : 1024 kBit/s
Качество : Высокий
Добавление ID3-тега : Нет
Утилита сжатия : C:\Program Files\FLAC\flac.exe
Дополнительные параметры : -V -8 -T "Date=%year%" -T "Genre=%genre%" %source%
TOC извлечённого CD
Трек | Старт | Длительность | Начальный сектор | Конечный сектор
---------------------------------------------------------------------
1 | 0:00.00 | 4:00.00 | 0 | 17999
2 | 4:00.00 | 3:47.65 | 18000 | 35089
3 | 7:47.65 | 3:56.35 | 35090 | 52824
4 | 11:44.25 | 3:36.07 | 52825 | 69031
5 | 15:20.32 | 4:09.40 | 69032 | 87746
6 | 19:29.72 | 4:42.28 | 87747 | 108924
7 | 24:12.25 | 4:35.05 | 108925 | 129554
Характеристики диапазона извлечения и сообщения об ошибках
Выбранный диапазон
Имя файла F:\Mariah Carey - MTV Unplugged EP [CD] - 1992 (lossless)\Mariah Carey - MTV Unplugged EP.wav
Пиковый уровень 100.0 %
Скорость извлечения 4.8 X
Качество диапазона 99.9 %
CRC теста 949DCC92
CRC копии 949DCC92
Копирование... OK
Ошибок не произошло
AccurateRip: сводка
Трек 1 : извлечено точно (доверие 2) [8DB38209] (AR v2)
Трек 2 : извлечено точно (доверие 2) [0BF1CF95] (AR v2)
Трек 3 : извлечено точно (доверие 2) [85B6038F] (AR v2)
Трек 4 : извлечено точно (доверие 2) [74B1FA59] (AR v2)
Трек 5 : извлечено точно (доверие 2) [CA3E5108] (AR v2)
Трек 6 : извлечено точно (доверие 2) [8B9ABA56] (AR v2)
Трек 7 : извлечено точно (доверие 2) [A44CC113] (AR v2)
Все треки извлечены точно
Конец отчёта
==== Контрольная сумма отчёта 03449C838FE5E0143E36937322691357ADBE2CF018E53C3D55319050C0348A68 ====
-Время раздачи: по выходным дням (до появления первых 3-5 скачавших)-

Поглощение/вытеснение
Только с согласия релизера

fanDYNAMO
[Профиль] [ЛС]
Показать сообщения:    
Ответить на тему

Текущее время: 22-Мар 05:58

Часовой пояс: UTC + 3



Вы не можете начинать темы
Вы не можете отвечать на сообщения
Вы не можете редактировать свои сообщения
Вы не можете удалять свои сообщения
Вы не можете голосовать в опросах
Вы не можете прикреплять файлы к сообщениям
Вы не можете скачивать файлы