Сегодня идет свободное скачивание без начисления Download

Жизнь Пи / Life of Pi (2012) BDRip [1080p] ATV

Ответить на тему
 
Автор Сообщение

Bot ®

Стаж: 4 года

Сообщений: 9

Создавать темы 14-Мар-2019 23:15

[Цитировать]

Жизнь Пи / Life of Pi (2012) BDRip [1080p] ATV
«Поверь в невозможное»
- Год выпуска: 2012
Производство: США, Тайвань, Великобритания
Жанр: Фэнтези, драма, приключения
Продолжительность: 02:06:59
Перевод: Дублированный (Лицензия)
Субтитры: Русские форсированные, Английские форсированные, Русские, Английские, Украинские
Режиссер: Энг Ли
Актеры: Сурадж Шарма, Ирфан Кхан, Рейф Сполл, Табу, Адиль Хуссэйн, Жерар Депардье, Аюш Тандон, Гаутам Белур, Аяан Кхан, Мохд Аббас Халили
Мировая премьера: 28 сентября 2012

Описание: Это история сына владельца одного индийского зоопарка, мальчика по имени Пи. Он познаёт мир, учится отстаивать свои принципы, ищет собственную дорогу к Богу, живя по канонам трёх конфессий, влюбляется… Но волей судьбы его семья вынуждена эмигрировать. На полпути между Индией и Канадой корабль терпит крушение, и Пи остается в шлюпке вместе с бенгальским тигром, гиеной, зеброй и орангутангом. Вокруг безбрежная водная гладь, а впереди — неизвестность…-Качество: BDRip 1080p
Контейнер: M4V
Видео: H.264, 1920x1040, 1.85:1, 8 000 Kbps, 23.976 fps
Аудио 1: Русский/Дублированный (Лицензия), AAC / 2.0 / 160 Kbps / 48.0 KHz
Аудио 2: Английский/Оригинальная дорожка , AAC / 2.0 / 160 Kbps / 48.0 KHz
Аудио 3: Украинский/Дублированный (Лицензия), AAC / 2.0 / 160 Kbps / 48.0 KHz
Аудио 4: Русский/Дублированный (Лицензия), AC-3 / 5.1 / 640 Kbps / 48.0 KHz
Аудио 5: Английский/Оригинальная дорожка , AC-3 / 5.1 / 640 Kbps / 48.0 KHz
Аудио 6: Украинский/Дублированный (Лицензия), AC-3 / 5.1 / 448 Kbps / 48.0 KHz-
iTunes Meta Tags
Код:
Sort Name: Life of Pi
XID: Apple:vendor_id:2012-158786
contentID: 586187595
Copyright: © 2012 Twentieth Century Fox Film Corporation. All rights reserved.
Screenwriters: Дэвид Мэги, Янн Мартел
Producers: Энг Ли, Джил Неттер, Дэвид Уомарк
Director: Энг Ли
Cast: Сурадж Шарма, Ирфан Кхан, Рейф Сполл, Табу, Адиль Хуссэйн, Жерар Депардье, Аюш Тандон, Гаутам Белур, Аяан Кхан, Мохд Аббас Халили
Studio: 20th Century Fox
Rating: 3
Long Description: Это история сына владельца одного индийского зоопарка, мальчика по имени Пи. Он познаёт мир, учится отстаивать свои принципы, ищет собственную дорогу к Богу, живя по канонам трёх конфессий, влюбляется... Но волей судьбы его семья вынуждена эмигрировать. На полпути между Индией и Канадой корабль терпит крушение, и Пи остается в шлюпке вместе с бенгальским тигром, гиеной, зеброй и орангутангом. Вокруг безбрежная водная гладь, а впереди - неизвестность...
Description: Это история сына владельца одного индийского зоопарка, мальчика по имени Пи.
Release Date: 2012-09-28T08:00:00Z
Genre: Drama
Artist: Ang Lee
Name: Life of Pi
MediaInfo
Код:
General
Complete name : /Users/imac/Download-BIGBOY/Life of Pi (1080p HD).m4v
Format : MPEG-4
Codec ID : M4V
File size : 9.05 GiB
Duration : 2h 6mn
Overall bit rate mode : Variable
Overall bit rate : 10.2 Mbps
Movie name : Life of Pi
Performer : Ang Lee
Director : Энг Ли
Actor : Сурадж Шарма / Ирфан Кхан / Рейф Сполл / Табу / Адиль Хуссэйн / Жерар Депардье / Аюш Тандон / Гаутам Белур / Аяан Кхан / Мохд Аббас Халили
Screenplay by : Дэвид Мэги / Янн Мартел
Producer : Энг Ли / Джил Неттер / Дэвид Уомарк
Production studio : 20th Century Fox
Genre : Drama
ContentType : Short Film
Description : Это история сына владельца одного индийского зоопарка, мальчика по имени Пи.
Recorded date : UTC 2012-09-28 08:00:00
Encoded date : UTC 2016-07-04 08:52:09
Tagged date : UTC 2016-07-04 08:55:20
Copyright : © 2012 Twentieth Century Fox Film Corporation. All rights reserved.
Cover : Yes
Rating : None
Title/Sort : Life of Pi
LongDescription : Это история сына владельца одного индийского зоопарка, мальчика по имени Пи. Он познаёт мир, учится отстаивать свои принципы, ищет собственную дорогу к Богу, живя по канонам трёх конфессий, влюбляется... Но волей судьбы его семья вынуждена эмигрировать. На полпути между Индией и Канадой корабль терпит крушение, и Пи остается в шлюпке вместе с бенгальским тигром, гиеной, зеброй и орангутангом. Вокруг безбрежная водная гладь, а впереди - неизвестность...
AppleStoreCatalogID : 586187595
Vendor : Apple:vendor_id:2012-158786
ContentRating : mpaa|PG|200|
Video #1
ID : 1
Format : AVC
Format/Info : Advanced Video Codec
Format profile : High@L4
Format settings, CABAC : Yes
Format settings, ReFrames : 4 frames
Codec ID : avc1
Codec ID/Info : Advanced Video Coding
Duration : 2h 6mn
Source duration : 2h 6mn
Bit rate : 8 000 Kbps
Width : 1 920 pixels
Height : 1 040 pixels
Display aspect ratio : 1.85:1
Frame rate mode : Variable
Frame rate : 23.976 fps
Minimum frame rate : 23.810 fps
Maximum frame rate : 24.272 fps
Color space : YUV
Chroma subsampling : 4:2:0
Bit depth : 8 bits
Scan type : Progressive
Bits/(Pixel*Frame) : 0.167
Stream size : 7.08 GiB (78%)
Source stream size : 7.08 GiB (78%)
Title : Main Program
Writing library : x264 core 142 r2479 dd79a61
Encoding settings : cabac=1 / ref=4 / deblock=1:-2:-2 / analyse=0x3:0x133 / me=umh / subme=10 / psy=1 / psy_rd=1.00:0.15 / mixed_ref=1 / me_range=32 / chroma_me=1 / trellis=2 / 8x8dct=1 / cqm=0 / deadzone=21,11 / fast_pskip=0 / chroma_qp_offset=-3 / threads=36 / lookahead_threads=8 / sliced_threads=0 / nr=0 / decimate=0 / interlaced=0 / bluray_compat=0 / constrained_intra=0 / bframes=16 / b_pyramid=2 / b_adapt=2 / b_bias=0 / direct=3 / weightb=1 / open_gop=0 / weightp=2 / keyint=240 / keyint_min=24 / scenecut=40 / intra_refresh=0 / rc_lookahead=60 / rc=2pass / mbtree=1 / bitrate=8000 / ratetol=1.0 / qcomp=0.70 / qpmin=0 / qpmax=69 / qpstep=4 / cplxblur=20.0 / qblur=0.5 / vbv_maxrate=25000 / vbv_bufsize=25000 / nal_hrd=none / filler=0 / ip_ratio=1.40 / aq=1:1.00
Language : English
Encoded date : UTC 2016-07-04 08:52:09
Tagged date : UTC 2016-07-04 08:52:26
Color range : Limited
Color primaries : BT.709
Transfer characteristics : BT.709
Matrix coefficients : BT.709
Video #2
ID : 14
Format : JPEG
Codec ID : jpeg
Duration : 2h 6mn
Bit rate mode : Variable
Bit rate : 1 358 bps
Width : 640 pixels
Height : 346 pixels
Display aspect ratio : 1.85:1
Frame rate mode : Variable
Frame rate : 0.004 fps
Minimum frame rate : 0.002 fps
Maximum frame rate : 0.010 fps
Color space : YUV
Chroma subsampling : 4:2:0
Bit depth : 8 bits
Compression mode : Lossy
Bits/(Pixel*Frame) : 1.533
Stream size : 1.13 MiB (0%)
Title : Chapter Images
Language : English
Encoded date : UTC 2016-07-04 08:52:40
Tagged date : UTC 2016-07-04 08:52:41
Audio #1
ID : 2
Format : AAC
Format/Info : Advanced Audio Codec
Format profile : LC
Codec ID : 40
Duration : 2h 6mn
Bit rate mode : Variable
Bit rate : 158 Kbps
Maximum bit rate : 257 Kbps
Channel(s) : 2 channels
Channel positions : Front: L R
Sampling rate : 48.0 KHz
Compression mode : Lossy
Stream size : 143 MiB (2%)
Title : Russian Stereo
Language : Russian
Encoded date : UTC 2016-07-04 08:52:09
Tagged date : UTC 2016-07-04 08:52:28
Audio #2
ID : 3
Format : AAC
Format/Info : Advanced Audio Codec
Format profile : LC
Codec ID : 40
Duration : 2h 6mn
Bit rate mode : Variable
Bit rate : 166 Kbps
Maximum bit rate : 234 Kbps
Channel(s) : 2 channels
Channel positions : Front: L R
Sampling rate : 48.0 KHz
Compression mode : Lossy
Stream size : 151 MiB (2%)
Title : English Stereo
Language : English
Encoded date : UTC 2016-07-04 08:52:09
Tagged date : UTC 2016-07-04 08:52:28
Audio #3
ID : 4
Format : AAC
Format/Info : Advanced Audio Codec
Format profile : LC
Codec ID : 40
Duration : 2h 6mn
Bit rate mode : Variable
Bit rate : 158 Kbps
Maximum bit rate : 242 Kbps
Channel(s) : 2 channels
Channel positions : Front: L R
Sampling rate : 48.0 KHz
Compression mode : Lossy
Stream size : 143 MiB (2%)
Title : Ukrainian Stereo
Language : Ukrainian
Encoded date : UTC 2016-07-04 08:52:09
Tagged date : UTC 2016-07-04 08:52:28
Audio #4
ID : 5
Format : AC-3
Format/Info : Audio Coding 3
Mode extension : CM (complete main)
Format settings, Endianness : Big
Codec ID : ac-3
Duration : 2h 6mn
Bit rate mode : Constant
Bit rate : 640 Kbps
Channel(s) : 6 channels
Channel positions : Front: L C R, Side: L R, LFE
Sampling rate : 48.0 KHz
Bit depth : 16 bits
Compression mode : Lossy
Stream size : 581 MiB (6%)
Title : Russian DD 5.1
Language : Russian
Encoded date : UTC 2016-07-04 08:52:09
Tagged date : UTC 2016-07-04 08:52:21
Audio #5
ID : 6
Format : AC-3
Format/Info : Audio Coding 3
Mode extension : CM (complete main)
Format settings, Endianness : Big
Codec ID : ac-3
Duration : 2h 6mn
Bit rate mode : Constant
Bit rate : 640 Kbps
Channel(s) : 6 channels
Channel positions : Front: L C R, Side: L R, LFE
Sampling rate : 48.0 KHz
Bit depth : 16 bits
Compression mode : Lossy
Stream size : 581 MiB (6%)
Title : English DD 5.1
Language : English
Encoded date : UTC 2016-07-04 08:52:09
Tagged date : UTC 2016-07-04 08:52:21
Audio #6
ID : 7
Format : AC-3
Format/Info : Audio Coding 3
Mode extension : CM (complete main)
Format settings, Endianness : Big
Codec ID : ac-3
Duration : 2h 6mn
Bit rate mode : Constant
Bit rate : 448 Kbps
Channel(s) : 6 channels
Channel positions : Front: L C R, Side: L R, LFE
Sampling rate : 48.0 KHz
Bit depth : 16 bits
Compression mode : Lossy
Stream size : 407 MiB (4%)
Title : Ukrainian DD 5.1
Language : Ukrainian
Encoded date : UTC 2016-07-04 08:52:09
Tagged date : UTC 2016-07-04 08:52:21
Text #1
ID : 8
Format : Timed Text
Muxing mode : sbtl
Codec ID : tx3g
Duration : 1h 49mn
Bit rate mode : Variable
Bit rate : 2 bps
Stream size : 1.71 KiB (0%)
Title : Russian forced
Language : Russian
Encoded date : UTC 2016-07-04 08:52:09
Tagged date : UTC 2016-07-04 08:52:09
Text #2
ID : 9
Format : Timed Text
Muxing mode : sbtl
Codec ID : tx3g
Duration : 1h 49mn
Bit rate mode : Variable
Bit rate : 1 bps
Stream size : 1.07 KiB (0%)
Title : English forced
Language : English
Encoded date : UTC 2016-07-04 08:52:09
Tagged date : UTC 2016-07-04 08:52:09
Text #3
ID : 10
Format : Timed Text
Muxing mode : sbtl
Codec ID : tx3g
Duration : 2h 6mn
Bit rate mode : Variable
Bit rate : 62 bps
Stream size : 57.9 KiB (0%)
Title : Russian full
Language : Russian
Encoded date : UTC 2016-07-04 08:52:09
Tagged date : UTC 2016-07-04 08:52:10
Text #4
ID : 11
Format : Timed Text
Muxing mode : sbtl
Codec ID : tx3g
Duration : 1h 58mn
Bit rate mode : Variable
Bit rate : 54 bps
Stream size : 46.9 KiB (0%)
Title : English full
Language : English
Encoded date : UTC 2016-07-04 08:52:09
Tagged date : UTC 2016-07-04 08:52:10
Text #5
ID : 12
Format : Timed Text
Muxing mode : sbtl
Codec ID : tx3g
Duration : 2h 6mn
Bit rate mode : Variable
Bit rate : 59 bps
Stream size : 54.9 KiB (0%)
Title : Ukrainian full
Language : Ukrainian
Encoded date : UTC 2016-07-04 08:52:09
Tagged date : UTC 2016-07-04 08:52:10
Menu #1
00:00:00.000 : Chapter 1
00:03:58.905 : Chapter 2
00:11:13.256 : Chapter 3
00:15:25.007 : Chapter 4
00:21:29.705 : Chapter 5
00:25:44.626 : Chapter 6
00:29:46.910 : Chapter 7
00:31:31.139 : Chapter 8
00:35:34.382 : Chapter 9
00:45:24.430 : Chapter 10
00:50:21.977 : Chapter 11
00:54:13.459 : Chapter 12
00:57:18.435 : Chapter 13
01:00:07.562 : Chapter 14
01:04:12.140 : Chapter 15
01:09:32.168 : Chapter 16
01:11:48.137 : Chapter 17
01:13:34.368 : Chapter 18
01:16:47.728 : Chapter 19
01:21:31.261 : Chapter 20
01:23:10.110 : Chapter 21
01:26:30.977 : Chapter 22
01:31:21.559 : Chapter 23
01:34:13.940 : Chapter 24
01:43:42.758 : Chapter 25
01:47:38.744 : Chapter 26
01:55:20.163 : Chapter 27
01:59:16.441 : Chapter 28
Menu #2
ID : 13
Codec ID : text
Duration : 2h 6mn
Language : English
Encoded date : UTC 2016-07-04 08:52:28
Tagged date : UTC 2016-07-04 08:52:28
00:00:00.000 : Chapter 1
00:03:58.905 : Chapter 2
00:11:13.256 : Chapter 3
00:15:25.007 : Chapter 4
00:21:29.705 : Chapter 5
00:25:44.626 : Chapter 6
00:29:46.910 : Chapter 7
00:31:31.139 : Chapter 8
00:35:34.382 : Chapter 9
00:45:24.430 : Chapter 10
00:50:21.977 : Chapter 11
00:54:13.459 : Chapter 12
00:57:18.435 : Chapter 13
01:00:07.562 : Chapter 14
01:04:12.140 : Chapter 15
01:09:32.168 : Chapter 16
01:11:48.137 : Chapter 17
01:13:34.368 : Chapter 18
01:16:47.728 : Chapter 19
01:21:31.261 : Chapter 20
01:23:10.110 : Chapter 21
01:26:30.977 : Chapter 22
01:31:21.559 : Chapter 23
01:34:13.940 : Chapter 24
01:43:42.758 : Chapter 25
01:47:38.744 : Chapter 26
01:55:20.163 : Chapter 27
01:59:16.441 : Chapter 28
Bit rate mode : VBR
x264 лог
Код:
x264 [info]: frame I:996   Avg QP:16.88  size:191656
x264 [info]: frame P:53915 Avg QP:20.06  size: 63955
x264 [info]: frame B:127777 Avg QP:21.15  size: 31004
x264 [info]: consecutive B-frames:  7.3%  7.1% 15.2% 26.6% 11.5% 28.1%  2.4%  0.5%  0.3%  0.2%  0.2%  0.1%  0.1%  0.1%  0.0%  0.0%  0.4%
x264 [info]: mb I  I16..4: 10.1% 80.1%  9.8%
x264 [info]: mb P  I16..4:  3.5% 18.2%  1.3%  P16..4: 45.5% 10.8%  7.6%  0.2%  0.1%    skip:12.9%
x264 [info]: mb B  I16..4:  0.3%  3.4%  0.3%  B16..8: 38.2%  8.8%  1.8%  direct: 9.1%  skip:38.2%  L0:42.7% L1:45.9% BI:11.4%
x264 [info]: 8x8 transform intra:80.9% inter:73.0%
x264 [info]: direct mvs  spatial:97.0% temporal:3.0%
x264 [info]: coded y,uvDC,uvAC intra: 80.4% 66.6% 27.6% inter: 27.6% 33.1% 7.5%
x264 [info]: i16 v,h,dc,p: 21% 21%  9% 48%
x264 [info]: i8 v,h,dc,ddl,ddr,vr,hd,vl,hu:  6% 16%  6%  8% 13% 10% 15% 10% 15%
x264 [info]: i4 v,h,dc,ddl,ddr,vr,hd,vl,hu:  5% 18%  3%  7% 13% 10% 18%  8% 16%
x264 [info]: i8c dc,h,v,p: 42% 31% 19%  9%
x264 [info]: Weighted P-Frames: Y:3.1% UV:1.8%
x264 [info]: ref P L0: 53.5%  9.8% 23.7% 10.3%  2.6%  0.1%
x264 [info]: ref B L0: 83.2% 13.4%  3.4%
x264 [info]: ref B L1: 92.1%  7.9%
x264 [info]: kb/s:7980.10
Скриншоты: -

Релиз подготовлен для просмотра на Apple TV, iPad, iPhone, iPod Touch.
Для просмотра данного релиза на компьютере с ОС Windows рекомендуется использовать VLC media player
[Профиль] [ЛС]
Показать сообщения:    
Ответить на тему

Текущее время: 22-Мар 05:51

Часовой пояс: UTC + 3



Вы не можете начинать темы
Вы не можете отвечать на сообщения
Вы не можете редактировать свои сообщения
Вы не можете удалять свои сообщения
Вы не можете голосовать в опросах
Вы не можете прикреплять файлы к сообщениям
Вы не можете скачивать файлы