Сегодня идет свободное скачивание без начисления Download

Про Федота-стрельца, удалого молодца (2008) DVDRip [H.264]

Ответить на тему
 
Автор Сообщение

Bot ®

Стаж: 4 года 1 месяц

Сообщений: 12

Создавать темы 14-Мар-2019 23:30

[Цитировать]

Про Федота-стрельца, удалого молодца (2008) DVDRip- Русское название: Про Федота-стрельца, удалого молодца
Год выпуска: 2008
Жанр: Компьютерная анимация, триллер, приключения, семейный
Описание:
Экранизация блистательной сказки Леонида Филатова, для работы над которой были привлечены одни из самых талантливых аниматоров студии "Мельница". Анимационная техника, использованная в этом фильме, позволяет максимально ярко и точно воплотить образы персонажей сказки, при этом режиссер очень бережно и умело обращается с поэтическим текстом. Придуманные художниками персонажи (в том числе и отрицательные) - яркие, остроумные и очень симпатичные. А главное, они органично существуют в анимационном мире, впервые созданном по мотивам всенародно любимой сказки Леонида Филатова.
Режиссер: Людмила Стеблянко
Персонажи: Актеры: Александр Ревва, Сергей Безруков, Чулпан Хаматова, Виктор Сухоруков, Дмитрий Дюжев, Евгения Добровольская, Михаил Ефремов, Ирина Безрукова
Продолжительность: 01:13:40
Релиз группа: by almikl ® &

Видеокодек: MPEG-4 AVC/H.264
Битрейт видео: ~1752 Кбит/сек
Размер кадра: 720 х 288
Качество видео: DVDRip
Аудиокодек: AC3 5.1
Битрейт аудио: 448 Кбит/сек
MediaInfo
Общее
Уникальный идентификатор : 214308754319455547580274588035784801088 (0xA13A5D5EDE238E32A27706C5C9F67B40)
Полное имя : G:\_Reliz\Pro.Fedota.strelca.udalogo.molodca.2008.DVDRip-AVC.h264.almikl.mkv
Формат : Matroska
Версия формата : Version 2
Размер файла : 1,13 Гбайт
Продолжительность : 1 ч. 13 м.
Общий поток : 2201 Кбит/сек
Дата кодирования : UTC 2013-01-24 06:06:46
Программа кодирования : mkvmerge v5.8.0 ('No Sleep / Pillow') built on Sep 2 2012 15:37:04
Библиотека кодирования : libebml v1.2.3 + libmatroska v1.3.0
Видео
Идентификатор : 1
Формат : AVC
Формат/Информация : Advanced Video Codec
Профиль формата : High@L4.1
Параметр CABAC формата : Да
Параметр ReFrames формата : 6 кадров
Идентификатор кодека : V_MPEG4/ISO/AVC
Продолжительность : 1 ч. 13 м.
Битрейт : 1752 Кбит/сек
Ширина : 720 пикселей
Высота : 288 пикселей
Соотношение сторон : 2,500
Режим частоты кадров : Постоянный
Частота кадров : 25,000 кадров/сек
Цветовое пространство : YUV
Субдискретизация насыщенности : 4:2:0
Битовая глубина : 8 бит
Тип развёртки : Прогрессивная
Бит/(Пиксели*Кадры) : 0.338
Размер потока : 901 Мбайт (78%)
Библиотека кодирования : x264 core 129 r2230 1cffe9f
Настройки программы : cabac=1 / ref=6 / deblock=1:-1:-1 / analyse=0x3:0x113 / me=umh / subme=10 / psy=1 / psy_rd=1.00:0.15 / mixed_ref=1 / me_range=32 / chroma_me=1 / trellis=2 / 8x8dct=1 / cqm=0 / deadzone=21,11 / fast_pskip=1 / chroma_qp_offset=-3 / threads=12 / lookahead_threads=2 / sliced_threads=0 / nr=0 / decimate=1 / interlaced=0 / bluray_compat=0 / constrained_intra=0 / bframes=10 / b_pyramid=2 / b_adapt=2 / b_bias=0 / direct=1 / weightb=1 / open_gop=0 / weightp=2 / keyint=250 / keyint_min=25 / scenecut=40 / intra_refresh=0 / rc_lookahead=40 / rc=2pass / mbtree=1 / bitrate=1752 / ratetol=1.0 / qcomp=0.60 / qpmin=10 / qpmax=51 / qpstep=4 / cplxblur=20.0 / qblur=0.5 / ip_ratio=1.40 / aq=1:1.00
Default : Да
Forced : Нет
Аудио
Идентификатор : 2
Формат : AC-3
Формат/Информация : Audio Coding 3
Расширение режима : CM (complete main)
Параметр Endianness формата : Big
Идентификатор кодека : A_AC3
Продолжительность : 1 ч. 13 м.
Вид битрейта : Постоянный
Битрейт : 448 Кбит/сек
Каналы : 6 каналов
Расположение каналов : Front: L C R, Side: L R, LFE
Частота : 48,0 КГц
Битовая глубина : 16 бит
Метод сжатия : С потерями
Размер потока : 236 Мбайт (20%)
Default : Да
Forced : Нет
Скриншоты: Время раздачи: 24\7, до 10 скачавших-Все релизы Про Федота-стрельца, удалого молодца на NNM-CLUB-
[Профиль] [ЛС]
Показать сообщения:    
Ответить на тему

Текущее время: 22-Мар 06:00

Часовой пояс: UTC + 3



Вы не можете начинать темы
Вы не можете отвечать на сообщения
Вы не можете редактировать свои сообщения
Вы не можете удалять свои сообщения
Вы не можете голосовать в опросах
Вы не можете прикреплять файлы к сообщениям
Вы не можете скачивать файлы