Сегодня идет свободное скачивание без начисления Download

Камеди Клаб / Комеди Клаб / Comedy Club (2019.02.22) SATRip

Ответить на тему
 
Автор Сообщение

Bot ®

Стаж: 5 лет 5 месяцев

Сообщений: 7

Создавать темы 15-Мар-2019 00:45

[Цитировать]

Камеди Клаб / Комеди Клаб / Comedy Club (2019.02.22) SATRip- Телекомпания: ТНТ
Жанр: Юмор
Актеры: Гарик Мартиросян, Вадим Галыгин, Павел Воля, Тимур Батрутдинов, Александр Ревва, Гавр, Олег Верещагин, Дмитрий Сорокин, Зураб Матуa, Андрей Аверин, Алексей Лихницкий, Роман Юнусов, Антон Лирник, Андрей Молочный, Александр Незлобин, Дмитрий Хрусталёв, Васильев Виктор, Сергей Бессмертный, Игорь Меерсон, Семён Слепаков, Михаил Галустян и др.
Описание:
«Comedy Club» был создан в 2005 году командой КВН «Новые армяне», в состав которой входили Артур Джанибекян, Артак Гаспарян, Артур Тумасян, Арташес Саркисян, Гарик Мартиросян и другие. Его идея была задумана ещё в 2001 году, когда Арташес Саркисян, побывав в США, увидел местный «Comedy Club». Временами стали появляться новые участники «Comedy Club», в основном из КВН. 23 апреля 2005 года «Comedy Club» впервые вышел в эфир телеканала ТНТ. Рейтинги программы стали бить все рекорды и это приносило программе большие доходы, на которые они стали делать другие проекты. Впоследствии они создали свою продюсерскую компанию «Comedy Club Production». 15 апреля 2007 года на ТНТ был показан сотый выпуск программы. Регулярно выходят новые выпуски и другие проекты - например спецвыпуски на Первом канале, юмористические фестивали и продюсирование участниками «Comedy Club» проекты других телепередач. 23 апреля 2010 года «Comedy Club» вышло с новой музыкой и обновлённым оформлением. Также «Comedy Club» выходит на каналах ICTV, НТВ+ - Мир и Comedy TV.
Как всегда, Comedy Club собрал все самое смешное, чтобы оставаться самым крутым юмористическим шоу на телевидении. Камеры готовы? Музыканты готовы? Зрители готовы? Поехали!
Продолжительность: 00:46:57
Качество видео: SATRip
Субтитры: Отсутствуют
Видео: Xvid, 720x400 (16:9), 1650 Kbps
Аудио: MP3, 2 ch, 192 Kbps
Mediainfo:
Общее
Полное имя : D:\Comedy Club (2019.02.22).avi
Формат : AVI
Формат/Информация : Audio Video Interleave
Размер файла : 622 Мбайт
Продолжительность : 46 м. 57 с.
Общий поток : 1852 Кбит/сек
Программа кодирования : VirtualDubMod 1.5.10.3 (build 2550/release)
Библиотека кодирования : VirtualDubMod build 2550/release
Видео
Идентификатор : 0
Формат : MPEG-4 Visual
Профиль формата : Advanced Simple@L5
Настройки формата : BVOP1
Параметр BVOP формата : 1
Параметр QPel формата : Нет
Параметр GMC формата : Без точки перехода
Параметр матрицы формата : Default (MPEG)
Идентификатор кодека : XVID
Идентификатор кодека/Подсказка : XviD
Продолжительность : 46 м. 57 с.
Битрейт : 1650 Кбит/сек
Ширина : 720 пикселей
Высота : 400 пикселей
Соотношение сторон : 16:9
Частота кадров : 25,000 кадров/сек
Цветовое пространство : YUV
Субдискретизация насыщенности : 4:2:0
Битовая глубина : 8 бит
Тип развёртки : Прогрессивная
Метод сжатия : С потерями
Бит/(Пиксели*Кадры) : 0.229
Размер потока : 554 Мбайт (89%)
Библиотека кодирования : XviD 65
Аудио
Идентификатор : 1
Формат : MPEG Audio
Версия формата : Version 1
Профиль формата : Layer 3
Настройки формата : Joint stereo / MS Stereo
Идентификатор кодека : 55
Идентификатор кодека/Подсказка : MP3
Продолжительность : 46 м. 57 с.
Вид битрейта : Постоянный
Битрейт : 192 Кбит/сек
Каналы : 2 канала
Частота : 48,0 КГц
Частота кадров : 41,667 кадра/сек (1152 SPF)
Метод сжатия : С потерями
Размер потока : 64,5 Мбайт (10%)
Выравнивание : Соединение по промежуткам
Продолжительность промежутка : 40 мс. (1,00 видеокадр)
Время предзагрузки промежутка : 504 мс.
Библиотека кодирования : LAME3.99r
Настройки программы : -m j -V 4 -q 2 -lowpass 18.6 -b 192
Скриншоты:
Все одноименные релизы в КлубеВремя раздачи: 24/7 (круглосуточно) (до появления первых 3-5 скачавших)
[Профиль] [ЛС]
Показать сообщения:    
Ответить на тему

Текущее время: 22-Мар 05:06

Часовой пояс: UTC + 3



Вы не можете начинать темы
Вы не можете отвечать на сообщения
Вы не можете редактировать свои сообщения
Вы не можете удалять свои сообщения
Вы не можете голосовать в опросах
Вы не можете прикреплять файлы к сообщениям
Вы не можете скачивать файлы